Google Drive Gundala.2019.1080p.BluRay.x264-WUTANG

Discussion in 'BDRip | 720p/1080p' started by DDLbase, Jul 18, 2020.

  1. DDLbase

    DDLbase Administrator Staff Member

    [​IMG]

    Rating: 6.9/10 based on 2,638 user ratings

    Genres: Action, Adventure, Drama, Sci-Fi

    Indonesia’s preeminent comic book superhero and his alter ego Sancaka enter the cinematic universe to battle the wicked Pengkor and his diabolical squad of orphan assassins.

    [​IMG]
    Code:
    General
    Unique ID                   : 34080284626736375890485764532446771885 (0x19A39FC2E4B553D984FCC4EEFF013AAD)
    Complete name               : Gundala.2019.1080p.BluRay.x264-WUTANG.mkv
    Format                      : Matroska
    Format version              : Version 4
    File size                   : 16.5 GiB
    Duration                    : 2 h 0 min
    Overall bit rate mode       : Variable
    Overall bit rate            : 19.7 Mb/s
    Encoded date                : UTC 2020-07-17 17:48:54
    Writing application         : mkvmerge v42.0.0 ('Overtime') 32-bit
    Writing library             : libebml v1.3.10 + libmatroska v1.5.2
    
    Video
    ID                          : 1
    Format                      : AVC
    Format/Info                 : Advanced Video Codec
    Format profile              : [email protected]
    Format settings             : CABAC / 5 Ref Frames
    Format settings, CABAC      : Yes
    Format settings, Reference  : 5 frames
    Codec ID                    : V_MPEG4/ISO/AVC
    Duration                    : 2 h 0 min
    Bit rate                    : 14.8 Mb/s
    Width                       : 1 920 pixels
    Height                      : 802 pixels
    Display aspect ratio        : 2.40:1
    Frame rate mode             : Constant
    Frame rate                  : 24.000 FPS
    Color space                 : YUV
    Chroma subsampling          : 4:2:0
    Bit depth                   : 8 bits
    Scan type                   : Progressive
    Bits/(Pixel*Frame)          : 0.401
    Stream size                 : 12.4 GiB (75%)
    Writing library             : x264 core 161 r3015 4c2aafd
    Encoding settings           : cabac=1 / ref=5 / deblock=1:-3:-3 / analyse=0x3:0x133 / me=umh / subme=9 / psy=1 / psy_rd=1.00:0.00 / mixed_ref=1 / me_range=32 / chroma_me=1 / trellis=2 / 8x8dct=1 / cqm=0 / deadzone=21,11 / fast_pskip=0 / chroma_qp_offset=-2 / threads=24 / lookahead_threads=2 / sliced_threads=0 / nr=0 / decimate=1 / interlaced=0 / bluray_compat=0 / constrained_intra=0 / bframes=3 / b_pyramid=2 / b_adapt=2 / b_bias=0 / direct=3 / weightb=1 / open_gop=0 / weightp=2 / keyint=250 / keyint_min=24 / scenecut=40 / intra_refresh=0 / rc=crf / mbtree=0 / crf=15.0 / qcomp=0.60 / qpmin=0 / qpmax=69 / qpstep=4 / ip_ratio=1.40 / pb_ratio=1.30 / aq=3:0.80
    Default                     : Yes
    Forced                      : No
    Color range                 : Limited
    Matrix coefficients         : BT.709
    
    Audio #1
    ID                          : 2
    Format                      : DTS XLL
    Format/Info                 : Digital Theater Systems
    Commercial name             : DTS-HD Master Audio
    Codec ID                    : A_DTS
    Duration                    : 2 h 0 min
    Bit rate mode               : Variable
    Bit rate                    : 2 421 kb/s
    Channel(s)                  : 6 channels
    Channel layout              : C L R Ls Rs LFE
    Sampling rate               : 48.0 kHz
    Frame rate                  : 93.750 FPS (512 SPF)
    Bit depth                   : 16 bits
    Compression mode            : Lossless
    Stream size                 : 2.03 GiB (12%)
    Title                       : Indonesian
    Language                    : Indonesian
    Default                     : Yes
    Forced                      : No
    
    Audio #2
    ID                          : 3
    Format                      : DTS XLL
    Format/Info                 : Digital Theater Systems
    Commercial name             : DTS-HD Master Audio
    Codec ID                    : A_DTS
    Duration                    : 2 h 0 min
    Bit rate mode               : Variable
    Bit rate                    : 2 405 kb/s
    Channel(s)                  : 6 channels
    Channel layout              : C L R Ls Rs LFE
    Sampling rate               : 48.0 kHz
    Frame rate                  : 93.750 FPS (512 SPF)
    Bit depth                   : 16 bits
    Compression mode            : Lossless
    Stream size                 : 2.02 GiB (12%)
    Title                       : English Dub
    Language                    : English
    Default                     : No
    Forced                      : No
    
    Text #1
    ID                          : 4
    Format                      : UTF-8
    Codec ID                    : S_TEXT/UTF8
    Codec ID/Info               : UTF-8 Plain Text
    Duration                    : 1 h 54 min
    Bit rate                    : 37 b/s
    Count of elements           : 1030
    Stream size                 : 31.9 KiB (0%)
    Title                       : English Forced
    Language                    : English
    Default                     : Yes
    Forced                      : Yes
    
    Text #2
    ID                          : 5
    Format                      : UTF-8
    Codec ID                    : S_TEXT/UTF8
    Codec ID/Info               : UTF-8 Plain Text
    Duration                    : 1 h 24 min
    Bit rate                    : 0 b/s
    Count of elements           : 12
    Stream size                 : 171 Bytes (0%)
    Title                       : English Forced for English Dub
    Language                    : English
    Default                     : No
    Forced                      : No
    
    Text #3
    ID                          : 6
    Format                      : PGS
    Muxing mode                 : zlib
    Codec ID                    : S_HDMV/PGS
    Codec ID/Info               : Picture based subtitle format used on BDs/HD-DVDs
    Duration                    : 1 h 54 min
    Bit rate                    : 24.7 kb/s
    Count of elements           : 2058
    Stream size                 : 20.3 MiB (0%)
    Language                    : English
    Default                     : No
    Forced                      : No
    
    Menu
    00:00:00.000                : en:Chapter 01
    00:10:21.833                : en:Chapter 02
    00:18:44.625                : en:Chapter 03
    00:26:22.875                : en:Chapter 04
    00:36:38.167                : en:Chapter 05
    00:46:39.417                : en:Chapter 06
    00:55:21.333                : en:Chapter 07
    01:05:06.333                : en:Chapter 08
    01:14:18.458                : en:Chapter 09
    01:22:09.208                : en:Chapter 10
    01:33:47.542                : en:Chapter 11
    01:42:31.000                : en:Chapter 12
    01:52:24.917                : en:Chapter 13
    Download:
     
  2. Loading...


Share This Page