Google Drive Guns.Akimbo.2019.1080p.AMZN.WEB-DL.DDP5.1.H.264-KamiKaze

Discussion in 'Web-DL / Webrip | 1080p' started by DDLbase, Feb 29, 2020.

  1. DDLbase

    DDLbase Administrator Staff Member

    [​IMG]

    Rating: 7.4/10 based on 1,887 user ratings

    Genres: Action, Comedy

    A guy relies on his newly-acquired gladiator skills to save his ex-girlfriend from kidnappers.

    [​IMG]
    Code:
    General
    Unique ID                   : 221347692584418491068160862604383604801 (0xA68603D2406A8C83017D4D6F4D5DD041)
    Complete name               : Guns.Akimbo.2019.1080p.AMZN.WEB-DL.DDP5.1.H.264-KamiKaze.mkv
    Format                      : Matroska
    Format version              : Version 4
    File size                   : 6.09 GiB
    Duration                    : 1 h 37 min
    Overall bit rate            : 8 911 kb/s
    Encoded date                : UTC 2020-02-28 08:21:49
    Writing application         : mkvmerge v43.0.0 ('The Quartermaster') 64-bit
    Writing library             : libebml v1.3.10 + libmatroska v1.5.2
    
    Video
    ID                          : 1
    Format                      : AVC
    Format/Info                 : Advanced Video Codec
    Format profile              : [email protected]
    Format settings             : CABAC / 4 Ref Frames
    Format settings, CABAC      : Yes
    Format settings, Reference  : 4 frames
    Codec ID                    : V_MPEG4/ISO/AVC
    Duration                    : 1 h 37 min
    Bit rate mode               : Constant
    Bit rate                    : 8 269 kb/s
    Nominal bit rate            : 10 000 kb/s
    Width                       : 1 920 pixels
    Height                      : 800 pixels
    Display aspect ratio        : 2.40:1
    Frame rate mode             : Constant
    Frame rate                  : 23.976 (24000/1001) FPS
    Color space                 : YUV
    Chroma subsampling          : 4:2:0
    Bit depth                   : 8 bits
    Scan type                   : Progressive
    Bits/(Pixel*Frame)          : 0.225
    Stream size                 : 5.65 GiB (93%)
    Default                     : Yes
    Forced                      : No
    Color range                 : Limited
    Color primaries             : BT.709
    Transfer characteristics    : BT.709
    Matrix coefficients         : BT.709
    
    Audio
    ID                          : 2
    Format                      : E-AC-3
    Format/Info                 : Enhanced AC-3
    Commercial name             : Dolby Digital Plus
    Codec ID                    : A_EAC3
    Duration                    : 1 h 37 min
    Bit rate mode               : Constant
    Bit rate                    : 640 kb/s
    Channel(s)                  : 6 channels
    Channel layout              : L R C LFE Ls Rs
    Sampling rate               : 48.0 kHz
    Frame rate                  : 31.250 FPS (1536 SPF)
    Compression mode            : Lossy
    Stream size                 : 448 MiB (7%)
    Language                    : English
    Service kind                : Complete Main
    Default                     : Yes
    Forced                      : No
    
    Text
    ID                          : 3
    Format                      : UTF-8
    Codec ID                    : S_TEXT/UTF8
    Codec ID/Info               : UTF-8 Plain Text
    Duration                    : 1 h 29 min
    Bit rate                    : 72 b/s
    Count of elements           : 1639
    Stream size                 : 47.6 KiB (0%)
    Title                       : SDH
    Language                    : English
    Default                     : No
    Forced                      : No
    Download:
     
  2. Loading...


Share This Page