Google Drive Guns.Akimbo.2019.1080p.BluRay.REMUX.AVC.DTS-HD.MA5.1-iFT

Discussion in 'BD REMUX | 1080p' started by DDLbase, Apr 21, 2020.

  1. DDLbase

    DDLbase Administrator Staff Member

    [​IMG]

    Rating: 6.3/10 based on 17,676 user ratings

    Genres: Action, Comedy

    A guy relies on his newly-acquired gladiator skills to save his ex-girlfriend from kidnappers.

    [​IMG]
    Code:
    General
    Unique ID                   : 135063359273024324946568213125234289055 (0x659C41BDBBA1E967BEB1A8C24055E99F)
    Complete name               : Guns.Akimbo.2019.1080p.BluRay.REMUX.AVC.DTS-HD.MA5.1-iFT.mkv
    Format                      : Matroska
    Format version              : Version 4
    File size                   : 26.7 GiB
    Duration                    : 1 h 37 min
    Overall bit rate mode       : Variable
    Overall bit rate            : 39.1 Mb/s
    Encoded date                : UTC 2020-04-17 19:00:25
    Writing application         : mkvmerge v45.0.0 ('Heaven in Pennies') 64-bit
    Writing library             : libebml v1.3.10 + libmatroska v1.5.2
    
    Video
    ID                          : 1
    Format                      : AVC
    Format/Info                 : Advanced Video Codec
    Format profile              : [email protected]
    Format settings             : CABAC / 4 Ref Frames
    Format settings, CABAC      : Yes
    Format settings, Reference  : 4 frames
    Codec ID                    : V_MPEG4/ISO/AVC
    Duration                    : 1 h 37 min
    Bit rate mode               : Variable
    Bit rate                    : 34.8 Mb/s
    Maximum bit rate            : 37.0 Mb/s
    Width                       : 1 920 pixels
    Height                      : 1 080 pixels
    Display aspect ratio        : 16:9
    Frame rate mode             : Constant
    Frame rate                  : 23.976 (24000/1001) FPS
    Color space                 : YUV
    Chroma subsampling          : 4:2:0
    Bit depth                   : 8 bits
    Scan type                   : Progressive
    Bits/(Pixel*Frame)          : 0.700
    Stream size                 : 23.8 GiB (89%)
    Default                     : Yes
    Forced                      : No
    
    Audio #1
    ID                          : 2
    Format                      : DTS XLL
    Format/Info                 : Digital Theater Systems
    Commercial name             : DTS-HD Master Audio
    Codec ID                    : A_DTS
    Duration                    : 1 h 37 min
    Bit rate mode               : Variable
    Bit rate                    : 4 066 kb/s
    Channel(s)                  : 6 channels
    Channel layout              : C L R Ls Rs LFE
    Sampling rate               : 48.0 kHz
    Frame rate                  : 93.750 FPS (512 SPF)
    Bit depth                   : 24 bits
    Compression mode            : Lossless
    Stream size                 : 2.78 GiB (10%)
    Title                       : DTS-HD.MA5.1
    Language                    : English
    Default                     : Yes
    Forced                      : No
    
    Audio #2
    ID                          : 3
    Format                      : AC-3
    Format/Info                 : Audio Coding 3
    Commercial name             : Dolby Digital
    Codec ID                    : A_AC3
    Duration                    : 1 h 37 min
    Bit rate mode               : Constant
    Bit rate                    : 192 kb/s
    Channel(s)                  : 2 channels
    Channel layout              : L R
    Sampling rate               : 48.0 kHz
    Frame rate                  : 31.250 FPS (1536 SPF)
    Compression mode            : Lossy
    Stream size                 : 134 MiB (0%)
    Title                       : Commentary by  Director:Writer Jason Lei Howden
    Language                    : English
    Service kind                : Complete Main
    Default                     : No
    Forced                      : No
    
    Text #1
    ID                          : 4
    Format                      : PGS
    Muxing mode                 : zlib
    Codec ID                    : S_HDMV/PGS
    Codec ID/Info               : Picture based subtitle format used on BDs/HD-DVDs
    Duration                    : 1 h 29 min
    Bit rate                    : 44.1 kb/s
    Count of elements           : 2980
    Stream size                 : 28.1 MiB (0%)
    Title                       : SDH
    Language                    : English
    Default                     : Yes
    Forced                      : No
    
    Text #2
    ID                          : 5
    Format                      : PGS
    Muxing mode                 : zlib
    Codec ID                    : S_HDMV/PGS
    Codec ID/Info               : Picture based subtitle format used on BDs/HD-DVDs
    Duration                    : 1 h 36 min
    Bit rate                    : 31.7 kb/s
    Count of elements           : 2260
    Stream size                 : 21.8 MiB (0%)
    Language                    : Spanish
    Default                     : No
    Forced                      : No
    
    Menu
    00:00:00.000                : en:Chapter 01
    00:04:14.588                : en:Chapter 02
    00:12:10.438                : en:Chapter 03
    00:18:55.384                : en:Chapter 04
    00:23:15.686                : en:Chapter 05
    00:30:08.598                : en:Chapter 06
    00:34:46.418                : en:Chapter 07
    00:42:15.491                : en:Chapter 08
    00:47:14.123                : en:Chapter 09
    00:52:14.673                : en:Chapter 10
    00:55:57.145                : en:Chapter 11
    00:58:56.783                : en:Chapter 12
    01:04:05.508                : en:Chapter 13
    01:10:56.752                : en:Chapter 14
    01:17:35.192                : en:Chapter 15
    01:29:03.129                : en:Chapter 16
    Download:
     
  2. Loading...


Share This Page