Google Drive Hard.Candy.2005.BluRay.1080p.DTS-HD.MA.5.1.AVC.REMUX-FraMeSToR

Discussion in 'BD REMUX | 1080p' started by DDLbase, Jun 30, 2020.

  1. DDLbase

    DDLbase Administrator Staff Member

    [​IMG]

    Hard Candy (2005)

    [​IMG] 7.1/10 [​IMG] 150,346

    Plot


    After three weeks of chatting with the thirty-two year old photographer Jeff Kohlver over the Internet, fourteen year old Hayley Stark meets him in the Nighthawks coffee shop. Hayley flirts with him in spite of the age difference and proposes to go to his house. Once there, she prepares a screwdriver for them and Jeff passes out. When he awakes, he is tied up to a chair, and Hayley accuses him of pedophilia. Jeff denies the accusation, and Hayley begins to torture him in a cat and mouse game.

    Movie Info
    • Rating: R
    • Genre: Drama, Thriller
    • Directed By: David Slade
    • Written By: Brian Nelson
    • Starring: Patrick Wilson, Ellen Page, Sandra Oh, Odessa Rae
    • Release Date: 28 Apr 2006
    • Runtime: 104 min
    • Production: Lions Gate Films
    [​IMG]
    Code:
    General
    Unique ID                                : 42032457341840427771992412062246318599 (0x1F9F28258EBC9205F98C4784400D3207)
    Complete name                            : Hard.Candy.2005.BluRay.1080p.DTS-HD.MA.5.1.AVC.REMUX-FraMeSToR.mkv
    Format                                   : Matroska
    Format version                           : Version 4 / Version 2
    File size                                : 17.4 GiB
    Duration                                 : 1 h 44 min
    Overall bit rate mode                    : Variable
    Overall bit rate                         : 23.9 Mb/s
    Movie name                               : Hard Candy
    Encoded date                             : UTC 2016-04-18 01:43:43
    Writing application                      : mkvmerge v9.0.1 ('Obstacles') 64bit
    Writing library                          : libebml v1.3.3 + libmatroska v1.4.4
    
    Video
    ID                                       : 1
    Format                                   : AVC
    Format/Info                              : Advanced Video Codec
    Format profile                           : [email protected]
    Format settings                          : CABAC / 4 Ref Frames
    Format settings, CABAC                   : Yes
    Format settings, ReFrames                : 4 frames
    Format settings, GOP                     : M=3, N=12
    Codec ID                                 : V_MPEG4/ISO/AVC
    Duration                                 : 1 h 44 min
    Bit rate mode                            : Variable
    Bit rate                                 : 20.0 Mb/s
    Maximum bit rate                         : 39.0 Mb/s
    Width                                    : 1 920 pixels
    Height                                   : 1 080 pixels
    Display aspect ratio                     : 16:9
    Frame rate mode                          : Constant
    Frame rate                               : 23.976 (24000/1001) FPS
    Color space                              : YUV
    Chroma subsampling                       : 4:2:0
    Bit depth                                : 8 bits
    Scan type                                : Progressive
    Bits/(Pixel*Frame)                       : 0.402
    Stream size                              : 14.5 GiB (84%)
    Default                                  : Yes
    Forced                                   : No
    Color range                              : Limited
    Color primaries                          : BT.709
    Transfer characteristics                 : BT.709
    Matrix coefficients                      : BT.709
    
    Audio #1
    ID                                       : 2
    Format                                   : DTS
    Format/Info                              : Digital Theater Systems
    Format profile                           : MA / Core
    Codec ID                                 : A_DTS
    Duration                                 : 1 h 44 min
    Bit rate mode                            : Variable / Constant
    Bit rate                                 : 3 280 kb/s / 1 509 kb/s
    Channel(s)                               : 6 channels
    Channel positions                        : Front: L C R, Side: L R, LFE
    Sampling rate                            : 48.0 kHz
    Frame rate                               : 93.750 FPS (512 SPF)
    Bit depth                                : 24 bits
    Compression mode                         : Lossless / Lossy
    Stream size                              : 2.39 GiB (14%)
    Title                                    : DTS-HD MA 5.1
    Language                                 : English
    Default                                  : Yes
    Forced                                   : No
    
    Audio #2
    ID                                       : 3
    Format                                   : AC-3
    Format/Info                              : Audio Coding 3
    Codec ID                                 : A_AC3
    Duration                                 : 1 h 44 min
    Bit rate mode                            : Constant
    Bit rate                                 : 256 kb/s
    Channel(s)                               : 2 channels
    Channel positions                        : Front: L R
    Sampling rate                            : 48.0 kHz
    Frame rate                               : 31.250 FPS (1536 SPF)
    Bit depth                                : 16 bits
    Compression mode                         : Lossy
    Stream size                              : 191 MiB (1%)
    Title                                    : Commentary by Director David Slade/Writer Brian Nelson
    Language                                 : English
    Service kind                             : Complete Main
    Default                                  : No
    Forced                                   : No
    
    Audio #3
    ID                                       : 4
    Format                                   : AC-3
    Format/Info                              : Audio Coding 3
    Codec ID                                 : A_AC3
    Duration                                 : 1 h 44 min
    Bit rate mode                            : Constant
    Bit rate                                 : 256 kb/s
    Channel(s)                               : 2 channels
    Channel positions                        : Front: L R
    Sampling rate                            : 48.0 kHz
    Frame rate                               : 31.250 FPS (1536 SPF)
    Bit depth                                : 16 bits
    Compression mode                         : Lossy
    Stream size                              : 191 MiB (1%)
    Title                                    : Commentary by Ellen Page/Patrick Wilson
    Language                                 : English
    Service kind                             : Complete Main
    Default                                  : No
    Forced                                   : No
    
    Text #1
    ID                                       : 5
    Format                                   : PGS
    Codec ID                                 : S_HDMV/PGS
    Codec ID/Info                            : Picture based subtitle format used on BDs/HD-DVDs
    Duration                                 : 1 h 40 min
    Bit rate                                 : 34.9 kb/s
    Count of elements                        : 2086
    Stream size                              : 25.0 MiB (0%)
    Title                                    : English
    Language                                 : English
    Default                                  : Yes
    Forced                                   : No
    
    Text #2
    ID                                       : 6
    Format                                   : PGS
    Codec ID                                 : S_HDMV/PGS
    Codec ID/Info                            : Picture based subtitle format used on BDs/HD-DVDs
    Duration                                 : 1 h 40 min
    Bit rate                                 : 37.4 kb/s
    Count of elements                        : 2354
    Stream size                              : 26.9 MiB (0%)
    Title                                    : English (SDH)
    Language                                 : English
    Default                                  : No
    Forced                                   : No
    
    Text #3
    ID                                       : 7
    Format                                   : PGS
    Codec ID                                 : S_HDMV/PGS
    Codec ID/Info                            : Picture based subtitle format used on BDs/HD-DVDs
    Duration                                 : 1 h 40 min
    Bit rate                                 : 32.2 kb/s
    Count of elements                        : 2140
    Stream size                              : 23.0 MiB (0%)
    Title                                    : Spanish (Latin American)
    Language                                 : Spanish
    Default                                  : No
    Forced                                   : No
    
    Menu
    00:00:00.000                             : en:Main Titles
    00:02:08.086                             : en:"Faces Lie"
    00:05:39.130                             : en:First Impressions
    00:10:34.675                             : en:Home
    00:14:26.282                             : en:"Take It All"
    00:17:36.305                             : en:Lonely
    00:20:17.215                             : en:Drugged
    00:25:55.345                             : en:"Busted"
    00:30:01.925                             : en:Voyeur or Conservationist
    00:33:47.567                             : en:Hide and Seek
    00:37:08.351                             : en:Found
    00:39:04.884                             : en:Combinations
    00:43:47.666                             : en:Opportunity
    00:46:51.225                             : en:Preparation
    00:50:56.011                             : en:Plea
    00:54:49.077                             : en:So Close...
    01:00:17.905                             : en:Memories
    01:03:19.086                             : en:Incision
    01:08:10.252                             : en:Post-Op
    01:12:35.142                             : en:"I'll Find You"
    01:16:42.431                             : en:Freedom
    01:19:48.700                             : en:Summons
    01:22:25.273                             : en:Unexpected Visitor
    01:26:57.754                             : en:Offer
    01:30:34.011                             : en:"Who Are You?"
    01:35:59.587                             : en:Only Way Out
    01:38:40.122                             : en:Promise
    01:40:35.446                             : en:End Credits
    Download:
     
  2. Loading...


Share This Page