Google Drive Hard.Eight.1996.1080p.BluRay.x264-USURY

Discussion in 'BDRip | 720p/1080p' started by DDLbase, Jan 7, 2021.

  1. DDLbase

    DDLbase Administrator Staff Member

    [​IMG]

    Rating: 7.2/10 based on 42,077 user ratings

    Genres: Crime, Drama

    Professional gambler Sydney teaches John the tricks of the trade. John does well until he falls for cocktail waitress Clementine.

    [​IMG]
    Code:
    General
    Unique ID                   : 227306010942153493163410598573379835736 (0xAB018B98DD33BCDFB4B93A18D7625758)
    Complete name               : Hard.Eight.1996.1080p.BluRay.x264-USURY.mkv
    Format                      : Matroska
    Format version              : Version 4
    File size                   : 12.0 GiB
    Duration                    : 1 h 41 min
    Overall bit rate mode       : Variable
    Overall bit rate            : 16.8 Mb/s
    Encoded date                : UTC 2021-01-06 18:20:44
    Writing application         : mkvmerge v8.5.1 ('Where you lead I will follow') 64bit
    Writing library             : libebml v1.3.3 + libmatroska v1.4.4
    
    Video
    ID                          : 1
    Format                      : AVC
    Format/Info                 : Advanced Video Codec
    Format profile              : [email protected]
    Format settings             : CABAC / 5 Ref Frames
    Format settings, CABAC      : Yes
    Format settings, Reference  : 5 frames
    Codec ID                    : V_MPEG4/ISO/AVC
    Duration                    : 1 h 41 min
    Bit rate                    : 15.3 Mb/s
    Width                       : 1 918 pixels
    Height                      : 818 pixels
    Display aspect ratio        : 2.35:1
    Frame rate mode             : Constant
    Frame rate                  : 23.976 (24000/1001) FPS
    Color space                 : YUV
    Chroma subsampling          : 4:2:0
    Bit depth                   : 8 bits
    Scan type                   : Progressive
    Bits/(Pixel*Frame)          : 0.408
    Stream size                 : 10.9 GiB (91%)
    Writing library             : x264 core 161 r3027 4121277
    Encoding settings           : cabac=1 / ref=5 / deblock=1:-3:-3 / analyse=0x3:0x133 / me=umh / subme=10 / psy=1 / psy_rd=1.00:0.15 / mixed_ref=1 / me_range=24 / chroma_me=1 / trellis=2 / 8x8dct=1 / cqm=0 / deadzone=21,11 / fast_pskip=1 / chroma_qp_offset=-3 / threads=18 / lookahead_threads=3 / sliced_threads=0 / nr=0 / decimate=1 / interlaced=0 / bluray_compat=0 / constrained_intra=0 / bframes=8 / b_pyramid=2 / b_adapt=2 / b_bias=0 / direct=3 / weightb=1 / open_gop=0 / weightp=2 / keyint=250 / keyint_min=23 / scenecut=40 / intra_refresh=0 / rc_lookahead=60 / rc=crf / mbtree=1 / crf=17.0 / qcomp=0.60 / qpmin=0 / qpmax=69 / qpstep=4 / ip_ratio=1.40 / aq=3:0.50
    Language                    : English
    Default                     : Yes
    Forced                      : No
    Color range                 : Limited
    Matrix coefficients         : BT.709
    
    Audio #1
    ID                          : 2
    Format                      : FLAC
    Format/Info                 : Free Lossless Audio Codec
    Codec ID                    : A_FLAC
    Duration                    : 1 h 41 min
    Bit rate mode               : Variable
    Bit rate                    : 1 261 kb/s
    Channel(s)                  : 2 channels
    Channel layout              : L R
    Sampling rate               : 48.0 kHz
    Frame rate                  : 11.719 FPS (4096 SPF)
    Bit depth                   : 24 bits
    Compression mode            : Lossless
    Stream size                 : 919 MiB (8%)
    Writing library             : libFLAC 1.2.1 (UTC 2007-09-17)
    Language                    : English
    Default                     : Yes
    Forced                      : No
    
    Audio #2
    ID                          : 3
    Format                      : AAC LC
    Format/Info                 : Advanced Audio Codec Low Complexity
    Codec ID                    : A_AAC-2
    Duration                    : 1 h 41 min
    Bit rate                    : 87.5 kb/s
    Channel(s)                  : 2 channels
    Channel layout              : L R
    Sampling rate               : 48.0 kHz
    Frame rate                  : 46.875 FPS (1024 SPF)
    Compression mode            : Lossy
    Delay relative to video     : 9 ms
    Stream size                 : 63.7 MiB (1%)
    Title                       : English Commentary by Paul Thomas Anderson and Philip Baker Hall
    Language                    : English
    Default                     : No
    Forced                      : No
    
    Audio #3
    ID                          : 4
    Format                      : AAC LC
    Format/Info                 : Advanced Audio Codec Low Complexity
    Codec ID                    : A_AAC-2
    Duration                    : 1 h 41 min
    Bit rate                    : 109 kb/s
    Channel(s)                  : 2 channels
    Channel layout              : L R
    Sampling rate               : 48.0 kHz
    Frame rate                  : 46.875 FPS (1024 SPF)
    Compression mode            : Lossy
    Delay relative to video     : 9 ms
    Stream size                 : 79.5 MiB (1%)
    Title                       : English Commentary by Paul Thomas Anderson, Philip Baker Hall, Michelle Satter and various crew members
    Language                    : English
    Default                     : No
    Forced                      : No
    
    Text #1
    ID                          : 5
    Format                      : UTF-8
    Codec ID                    : S_TEXT/UTF8
    Codec ID/Info               : UTF-8 Plain Text
    Duration                    : 1 h 32 min
    Bit rate                    : 60 b/s
    Count of elements           : 1387
    Stream size                 : 40.8 KiB (0%)
    Title                       : English
    Language                    : English
    Default                     : No
    Forced                      : No
    
    Text #2
    ID                          : 6
    Format                      : PGS
    Muxing mode                 : zlib
    Codec ID                    : S_HDMV/PGS
    Codec ID/Info               : Picture based subtitle format used on BDs/HD-DVDs
    Duration                    : 1 h 32 min
    Bit rate                    : 13.1 kb/s
    Count of elements           : 2771
    Stream size                 : 8.65 MiB (0%)
    Title                       : English
    Language                    : English
    Default                     : No
    Forced                      : No
    
    Menu
    00:00:00.000                : en:00:00:00.000
    00:08:47.360                : en:00:08:47.360
    00:21:47.014                : en:00:21:47.014
    00:34:11.216                : en:00:34:11.216
    00:46:55.146                : en:00:46:55.146
    00:57:11.762                : en:00:57:11.762
    01:03:50.326                : en:01:03:50.326
    01:09:49.644                : en:01:09:49.644
    01:19:53.038                : en:01:19:53.038
    01:29:44.379                : en:01:29:44.379
    01:37:33.306                : en:01:37:33.306
    Download - Mirror 1:
    Download - Mirror 2:
     
  2. Loading...


Share This Page