Google Drive Hellraiser.2022.1080p.HULU.WEB-DL.DDP5.1.H.264-EVO

Discussion in 'Web-DL / Webrip | 1080p' started by DDLbase, Oct 7, 2022.

  1. DDLbase

    DDLbase Administrator Staff Member

    [​IMG]

    Rating: 6.5/10 based on 1,002 user ratings

    Genres: Horror, Mystery, Thriller

    A take on Clive Barker's 1987 horror classic where a young woman struggling with addiction comes into possession of an ancient puzzle box, unaware that its purpose is to summon the Cenobites.

    [​IMG]
    Code:
    General
    Unique ID                   : 323913201456245900565282975846263367817 (0xF3AF69D5055DBD6AFA0433DA1BBF2889)
    Complete name               : Hellraiser.2022.1080p.HULU.WEB-DL.DDP5.1.H.264-EVO.mkv
    Format                      : Matroska
    Format version              : Version 4
    File size                   : 2.42 GiB
    Duration                    : 2 h 0 min
    Overall bit rate            : 2 866 kb/s
    Encoded date                : UTC 2022-10-07 04:09:44
    Writing application         : mkvmerge v70.0.0 ('Caught A Lite Sneeze') 64-bit
    Writing library             : libebml v1.4.2 + libmatroska v1.6.4
    
    Video
    ID                          : 1
    Format                      : AVC
    Format/Info                 : Advanced Video Codec
    Format profile              : High@L4
    Format settings             : CABAC / 4 Ref Frames
    Format settings, CABAC      : Yes
    Format settings, Reference  : 4 frames
    Codec ID                    : V_MPEG4/ISO/AVC
    Duration                    : 2 h 0 min
    Bit rate                    : 2 608 kb/s
    Width                       : 1 920 pixels
    Height                      : 1 080 pixels
    Display aspect ratio        : 16:9
    Frame rate mode             : Constant
    Frame rate                  : 23.976 (24000/1001) FPS
    Color space                 : YUV
    Chroma subsampling          : 4:2:0
    Bit depth                   : 8 bits
    Scan type                   : Progressive
    Bits/(Pixel*Frame)          : 0.052
    Stream size                 : 2.20 GiB (91%)
    Default                     : Yes
    Forced                      : No
    
    Audio
    ID                          : 2
    Format                      : E-AC-3
    Format/Info                 : Enhanced AC-3
    Commercial name             : Dolby Digital Plus
    Codec ID                    : A_EAC3
    Duration                    : 2 h 0 min
    Bit rate mode               : Constant
    Bit rate                    : 256 kb/s
    Channel(s)                  : 6 channels
    Channel layout              : L R C LFE Ls Rs
    Sampling rate               : 48.0 kHz
    Frame rate                  : 31.250 FPS (1536 SPF)
    Compression mode            : Lossy
    Stream size                 : 221 MiB (9%)
    Language                    : English
    Service kind                : Complete Main
    Default                     : Yes
    Forced                      : No
    Download - Mirror 1:
    Download - Mirror 2:
     
  2. Loading...


Share This Page