Google Drive Hot.Fuzz.2007.2160p.UHD.BluRay.x265-WhiteRhino

Discussion in 'BDRip | 4K' started by DDLbase, Apr 12, 2021.

  1. DDLbase

    DDLbase Administrator Staff Member

    [​IMG]

    Rating: 7.8/10 based on 467,939 user ratings

    Genres: Action, Comedy, Mystery

    A skilled London police officer is transferred to a small town with a dark secret.

    [​IMG]
    Code:
    General
    Unique ID                   : 31852635779427711200077110645674960659 (0x17F69831839F80114ADDBE979B5B6713)
    Complete name               : Hot.Fuzz.2007.2160p.UHD.BluRay.x265-WhiteRhino.mkv
    Format                      : Matroska
    Format version              : Version 4
    File size                   : 20.1 GiB
    Duration                    : 2 h 0 min
    Overall bit rate mode       : Variable
    Overall bit rate            : 23.8 Mb/s
    Encoded date                : UTC 2019-09-07 12:13:16
    Writing application         : mkvmerge v37.0.0 ('Leave It') 64-bit
    Writing library             : libebml v1.3.9 + libmatroska v1.5.2
    
    Video
    ID                          : 1
    Format                      : HEVC
    Format/Info                 : High Efficiency Video Coding
    Format profile              : Main [email protected]@High
    HDR format                  : SMPTE ST 2086, HDR10 compatible
    Codec ID                    : V_MPEGH/ISO/HEVC
    Duration                    : 2 h 0 min
    Bit rate                    : 16.7 Mb/s
    Width                       : 3 840 pixels
    Height                      : 1 636 pixels
    Display aspect ratio        : 2.35:1
    Frame rate mode             : Constant
    Frame rate                  : 23.976 (24000/1001) FPS
    Color space                 : YUV
    Chroma subsampling          : 4:2:0 (Type 2)
    Bit depth                   : 10 bits
    Bits/(Pixel*Frame)          : 0.111
    Stream size                 : 14.1 GiB (70%)
    Writing library             : x265 3.1+14-f08461fdae33:[Windows][GCC 9.2.0][64 bit] 10bit
    Encoding settings           : cpuid=1111039 / frame-threads=4 / numa-pools=20 / wpp / no-pmode / no-pme / no-psnr / no-ssim / log-level=2 / input-csp=1 / input-res=3840x1636 / interlace=0 / total-frames=173805 / level-idc=51 / high-tier=1 / uhd-bd=0 / ref=4 / no-allow-non-conformance / repeat-headers / annexb / aud / hrd / info / hash=0 / no-temporal-layers / no-open-gop / min-keyint=1 / keyint=24 / gop-lookahead=0 / bframes=4 / b-adapt=2 / b-pyramid / bframe-bias=0 / rc-lookahead=25 / lookahead-slices=4 / scenecut=40 / radl=0 / no-splice / no-intra-refresh / ctu=64 / min-cu-size=8 / rect / no-amp / max-tu-size=32 / tu-inter-depth=1 / tu-intra-depth=1 / limit-tu=0 / rdoq-level=2 / dynamic-rd=0.00 / no-ssim-rd / signhide / no-tskip / nr-intra=0 / nr-inter=0 / no-constrained-intra / no-strong-intra-smoothing / max-merge=3 / limit-refs=3 / limit-modes / me=3 / subme=3 / merange=57 / temporal-mvp / no-hme / weightp / no-weightb / no-analyze-src-pics / deblock=-3:-3 / no-sao / no-sao-non-deblock / rd=4 / no-early-skip / rskip / no-fast-intra / no-tskip-fast / no-cu-lossless / no-b-intra / no-splitrd-skip / rdpenalty=0 / psy-rd=2.00 / psy-rdoq=1.00 / no-rd-refine / no-lossless / cbqpoffs=0 / crqpoffs=0 / rc=crf / crf=17.0 / qcomp=0.60 / qpstep=4 / stats-write=0 / stats-read=0 / vbv-maxrate=160000 / vbv-bufsize=160000 / vbv-init=0.9 / crf-max=0.0 / crf-min=0.0 / ipratio=1.40 / pbratio=1.30 / aq-mode=2 / aq-strength=1.00 / cutree / zone-count=0 / no-strict-cbr / qg-size=32 / no-rc-grain / qpmax=69 / qpmin=0 / no-const-vbv / sar=1 / overscan=0 / videoformat=5 / range=0 / colorprim=9 / transfer=16 / colormatrix=9 / chromaloc=1 / chromaloc-top=2 / chromaloc-bottom=2 / display-window=0 / master-display=G(13250,34500)B(7500,3000)R(34000,16000)WP(15635,16450)L(10000000,50)cll=960,336 / min-luma=0 / max-luma=1023 / log2-max-poc-lsb=8 / vui-timing-info / vui-hrd-info / slices=1 / no-opt-qp-pps / no-opt-ref-list-length-pps / no-multi-pass-opt-rps / scenecut-bias=0.05 / no-opt-cu-delta-qp / no-aq-motion / hdr / hdr-opt / no-dhdr10-opt / no-idr-recovery-sei / analysis-reuse-level=5 / scale-factor=0 / refine-intra=0 / refine-inter=0 / refine-mv=0 / refine-ctu-distortion=0 / no-limit-sao / ctu-info=0 / no-lowpass-dct / refine-analysis-type=0 / copy-pic=1 / max-ausize-factor=1.0 / no-dynamic-refine / no-single-sei / no-hevc-aq / no-svt / no-field / qp-adaptation-range=1.00
    Default                     : Yes
    Forced                      : No
    Color range                 : Limited
    Color primaries             : BT.2020
    Transfer characteristics    : PQ
    Matrix coefficients         : BT.2020 non-constant
    Mastering display color pri : Display P3
    Mastering display luminance : min: 0.0050 cd/m2, max: 1000 cd/m2
    Maximum Content Light Level : 960 cd/m2
    Maximum Frame-Average Light : 336 cd/m2
    
    Audio #1
    ID                          : 2
    Format                      : DTS XLL X
    Format/Info                 : Digital Theater Systems
    Commercial name             : DTS-HD Master Audio
    Codec ID                    : A_DTS
    Duration                    : 2 h 0 min
    Bit rate mode               : Variable
    Bit rate                    : 5 998 kb/s
    Channel(s)                  : 8 channels
    Channel(s)_Original         : Object Based
    ChannelLayout_Original      : Object Based
    Sampling rate               : 48.0 kHz
    Frame rate                  : 93.750 FPS (512 SPF)
    Bit depth                   : 24 bits
    Stream size                 : 5.06 GiB (25%)
    Language                    : English
    Default                     : Yes
    Forced                      : No
    
    Audio #2
    ID                          : 3
    Format                      : AC-3
    Format/Info                 : Audio Coding 3
    Commercial name             : Dolby Digital
    Codec ID                    : A_AC3
    Duration                    : 2 h 0 min
    Bit rate mode               : Constant
    Bit rate                    : 192 kb/s
    Channel(s)                  : 2 channels
    Channel layout              : L R
    Sampling rate               : 48.0 kHz
    Frame rate                  : 31.250 FPS (1536 SPF)
    Compression mode            : Lossy
    Stream size                 : 166 MiB (1%)
    Title                       : Commentary 1
    Language                    : English
    Service kind                : Complete Main
    Default                     : No
    Forced                      : No
    
    Audio #3
    ID                          : 4
    Format                      : AC-3
    Format/Info                 : Audio Coding 3
    Commercial name             : Dolby Digital
    Codec ID                    : A_AC3
    Duration                    : 2 h 0 min
    Bit rate mode               : Constant
    Bit rate                    : 192 kb/s
    Channel(s)                  : 2 channels
    Channel layout              : L R
    Sampling rate               : 48.0 kHz
    Frame rate                  : 31.250 FPS (1536 SPF)
    Compression mode            : Lossy
    Stream size                 : 166 MiB (1%)
    Title                       : Commentary 2
    Language                    : English
    Service kind                : Complete Main
    Default                     : No
    Forced                      : No
    
    Audio #4
    ID                          : 5
    Format                      : AC-3
    Format/Info                 : Audio Coding 3
    Commercial name             : Dolby Digital
    Codec ID                    : A_AC3
    Duration                    : 2 h 0 min
    Bit rate mode               : Constant
    Bit rate                    : 192 kb/s
    Channel(s)                  : 2 channels
    Channel layout              : L R
    Sampling rate               : 48.0 kHz
    Frame rate                  : 31.250 FPS (1536 SPF)
    Compression mode            : Lossy
    Stream size                 : 166 MiB (1%)
    Title                       : Commentary 3
    Language                    : English
    Service kind                : Complete Main
    Default                     : No
    Forced                      : No
    
    Audio #5
    ID                          : 6
    Format                      : AC-3
    Format/Info                 : Audio Coding 3
    Commercial name             : Dolby Digital
    Codec ID                    : A_AC3
    Duration                    : 2 h 0 min
    Bit rate mode               : Constant
    Bit rate                    : 192 kb/s
    Channel(s)                  : 2 channels
    Channel layout              : L R
    Sampling rate               : 48.0 kHz
    Frame rate                  : 31.250 FPS (1536 SPF)
    Compression mode            : Lossy
    Stream size                 : 166 MiB (1%)
    Title                       : Commentary 4
    Language                    : English
    Service kind                : Complete Main
    Default                     : No
    Forced                      : No
    
    Audio #6
    ID                          : 7
    Format                      : AC-3
    Format/Info                 : Audio Coding 3
    Commercial name             : Dolby Digital
    Codec ID                    : A_AC3
    Duration                    : 2 h 0 min
    Bit rate mode               : Constant
    Bit rate                    : 192 kb/s
    Channel(s)                  : 2 channels
    Channel layout              : L R
    Sampling rate               : 48.0 kHz
    Frame rate                  : 31.250 FPS (1536 SPF)
    Compression mode            : Lossy
    Stream size                 : 166 MiB (1%)
    Title                       : Commentary 5
    Language                    : English
    Service kind                : Complete Main
    Default                     : No
    Forced                      : No
    
    Text #1
    ID                          : 8
    Format                      : PGS
    Muxing mode                 : zlib
    Codec ID                    : S_HDMV/PGS
    Codec ID/Info               : Picture based subtitle format used on BDs/HD-DVDs
    Duration                    : 1 h 55 min
    Bit rate                    : 49.2 kb/s
    Count of elements           : 4062
    Stream size                 : 40.5 MiB (0%)
    Language                    : English
    Default                     : No
    Forced                      : No
    
    Text #2
    ID                          : 9
    Format                      : PGS
    Muxing mode                 : zlib
    Codec ID                    : S_HDMV/PGS
    Codec ID/Info               : Picture based subtitle format used on BDs/HD-DVDs
    Duration                    : 2 h 0 min
    Bit rate                    : 89.1 kb/s
    Count of elements           : 5189
    Stream size                 : 77.0 MiB (0%)
    Language                    : English
    Default                     : No
    Forced                      : No
    
    Text #3
    ID                          : 10
    Format                      : PGS
    Muxing mode                 : zlib
    Codec ID                    : S_HDMV/PGS
    Codec ID/Info               : Picture based subtitle format used on BDs/HD-DVDs
    Duration                    : 1 h 56 min
    Bit rate                    : 82.0 kb/s
    Count of elements           : 5323
    Stream size                 : 68.2 MiB (0%)
    Language                    : English
    Default                     : No
    Forced                      : No
    
    Text #4
    ID                          : 11
    Format                      : PGS
    Muxing mode                 : zlib
    Codec ID                    : S_HDMV/PGS
    Codec ID/Info               : Picture based subtitle format used on BDs/HD-DVDs
    Duration                    : 2 h 0 min
    Bit rate                    : 88.3 kb/s
    Count of elements           : 4515
    Stream size                 : 76.3 MiB (0%)
    Language                    : English
    Default                     : No
    Forced                      : No
    
    Text #5
    ID                          : 12
    Format                      : PGS
    Muxing mode                 : zlib
    Codec ID                    : S_HDMV/PGS
    Codec ID/Info               : Picture based subtitle format used on BDs/HD-DVDs
    Duration                    : 1 h 55 min
    Bit rate                    : 75.4 kb/s
    Count of elements           : 4590
    Stream size                 : 62.3 MiB (0%)
    Language                    : English
    Default                     : No
    Forced                      : No
    
    Text #6
    ID                          : 13
    Format                      : PGS
    Muxing mode                 : zlib
    Codec ID                    : S_HDMV/PGS
    Codec ID/Info               : Picture based subtitle format used on BDs/HD-DVDs
    Duration                    : 2 h 0 min
    Bit rate                    : 76.0 kb/s
    Count of elements           : 4667
    Stream size                 : 65.6 MiB (0%)
    Language                    : English
    Default                     : No
    Forced                      : No
    
    Text #7
    ID                          : 14
    Format                      : PGS
    Muxing mode                 : zlib
    Codec ID                    : S_HDMV/PGS
    Codec ID/Info               : Picture based subtitle format used on BDs/HD-DVDs
    Duration                    : 1 h 59 min
    Bit rate                    : 32.7 kb/s
    Count of elements           : 2876
    Stream size                 : 28.0 MiB (0%)
    Language                    : French
    Default                     : No
    Forced                      : No
    
    Text #8
    ID                          : 15
    Format                      : PGS
    Muxing mode                 : zlib
    Codec ID                    : S_HDMV/PGS
    Codec ID/Info               : Picture based subtitle format used on BDs/HD-DVDs
    Duration                    : 1 h 59 min
    Bit rate                    : 41.7 kb/s
    Count of elements           : 3110
    Stream size                 : 35.7 MiB (0%)
    Language                    : Spanish
    Default                     : No
    Forced                      : No
    
    Text #9
    ID                          : 16
    Format                      : PGS
    Muxing mode                 : zlib
    Codec ID                    : S_HDMV/PGS
    Codec ID/Info               : Picture based subtitle format used on BDs/HD-DVDs
    Duration                    : 1 h 59 min
    Bit rate                    : 494 b/s
    Count of elements           : 42
    Stream size                 : 431 KiB (0%)
    Language                    : Spanish
    Default                     : No
    Forced                      : No
    
    Text #10
    ID                          : 17
    Format                      : PGS
    Muxing mode                 : zlib
    Codec ID                    : S_HDMV/PGS
    Codec ID/Info               : Picture based subtitle format used on BDs/HD-DVDs
    Duration                    : 1 h 54 min
    Bit rate                    : 29.5 kb/s
    Count of elements           : 3276
    Stream size                 : 24.1 MiB (0%)
    Language                    : Japanese
    Default                     : No
    Forced                      : No
    
    Text #11
    ID                          : 18
    Format                      : PGS
    Muxing mode                 : zlib
    Codec ID                    : S_HDMV/PGS
    Codec ID/Info               : Picture based subtitle format used on BDs/HD-DVDs
    Duration                    : 1 h 49 min
    Bit rate                    : 640 b/s
    Count of elements           : 72
    Stream size                 : 514 KiB (0%)
    Language                    : Japanese
    Default                     : No
    Forced                      : No
    
    Text #12
    ID                          : 19
    Format                      : PGS
    Muxing mode                 : zlib
    Codec ID                    : S_HDMV/PGS
    Codec ID/Info               : Picture based subtitle format used on BDs/HD-DVDs
    Duration                    : 1 h 59 min
    Bit rate                    : 41.2 kb/s
    Count of elements           : 3112
    Stream size                 : 35.3 MiB (0%)
    Language                    : Portuguese
    Default                     : No
    Forced                      : No
    
    Text #13
    ID                          : 20
    Format                      : PGS
    Muxing mode                 : zlib
    Codec ID                    : S_HDMV/PGS
    Codec ID/Info               : Picture based subtitle format used on BDs/HD-DVDs
    Duration                    : 1 h 59 min
    Bit rate                    : 495 b/s
    Count of elements           : 42
    Stream size                 : 432 KiB (0%)
    Language                    : Portuguese
    Default                     : No
    Forced                      : No
    
    Menu
    00:00:00.000                : en:Chapter 01
    00:02:26.438                : en:Chapter 02
    00:05:23.406                : en:Chapter 03
    00:07:15.935                : en:Chapter 04
    00:12:10.146                : en:Chapter 05
    00:14:07.430                : en:Chapter 06
    00:21:39.381                : en:Chapter 07
    00:25:47.796                : en:Chapter 08
    00:28:46.475                : en:Chapter 09
    00:32:08.593                : en:Chapter 10
    00:35:27.792                : en:Chapter 11
    00:39:07.762                : en:Chapter 12
    00:42:11.988                : en:Chapter 13
    00:44:56.027                : en:Chapter 14
    00:49:26.755                : en:Chapter 15
    00:54:58.420                : en:Chapter 16
    01:01:45.076                : en:Chapter 17
    01:09:24.410                : en:Chapter 18
    01:16:58.697                : en:Chapter 19
    01:19:14.917                : en:Chapter 20
    01:28:59.334                : en:Chapter 21
    01:31:40.245                : en:Chapter 22
    01:41:13.985                : en:Chapter 23
    01:45:30.533                : en:Chapter 24
    01:50:49.142                : en:Chapter 25
    01:52:01.965                : en:Chapter 26
    01:53:54.578                : en:Chapter 27
    01:55:14.825                : en:Chapter 28
    Download - Mirror 1:
    Download - Mirror 2:
     
  2. Loading...


Share This Page