Google Drive Hunt.2022.1080p.AMZN.WEB-DL.DDP5.1.H.264-MARK

Discussion in 'Web-DL / Webrip | 1080p' started by DDLbase, Oct 3, 2022.

  1. DDLbase

    DDLbase Administrator Staff Member

    [​IMG]

    Rating: 7.1/10 based on 600 user ratings

    Genres: Action, Drama, Mystery

    A spy movie based in the 1980s National Security Planning.

    [​IMG]
    Code:
    General
    Unique ID                   : 281080749926168034724930233448224824935 (0xD3762EED3B38103873A71D0F8FB09E67)
    Complete name               : Hunt.2022.1080p.AMZN.WEB-DL.DDP5.1.H.264-MARK.mkv
    Format                      : Matroska
    Format version              : Version 4
    File size                   : 7.38 GiB
    Duration                    : 2 h 5 min
    Overall bit rate            : 8 441 kb/s
    Encoded date                : UTC 2022-09-29 18:52:26
    Writing application         : mkvmerge v70.0.0 ('Caught A Lite Sneeze') 32-bit
    Writing library             : libebml v1.4.2 + libmatroska v1.6.4
    
    Video
    ID                          : 1
    Format                      : AVC
    Format/Info                 : Advanced Video Codec
    Format profile              : High@L4
    Format settings             : CABAC / 4 Ref Frames
    Format settings, CABAC      : Yes
    Format settings, Reference  : 4 frames
    Codec ID                    : V_MPEG4/ISO/AVC
    Duration                    : 2 h 5 min
    Bit rate mode               : Constant
    Bit rate                    : 7 799 kb/s
    Nominal bit rate            : 10 000 kb/s
    Width                       : 1 920 pixels
    Height                      : 816 pixels
    Display aspect ratio        : 2.35:1
    Frame rate mode             : Constant
    Frame rate                  : 24.000 FPS
    Color space                 : YUV
    Chroma subsampling          : 4:2:0
    Bit depth                   : 8 bits
    Scan type                   : Progressive
    Bits/(Pixel*Frame)          : 0.207
    Stream size                 : 6.82 GiB (92%)
    Language                    : Korean
    Default                     : Yes
    Forced                      : No
    Color range                 : Limited
    Color primaries             : BT.709
    Transfer characteristics    : BT.709
    Matrix coefficients         : BT.709
    
    Audio
    ID                          : 2
    Format                      : E-AC-3
    Format/Info                 : Enhanced AC-3
    Commercial name             : Dolby Digital Plus
    Codec ID                    : A_EAC3
    Duration                    : 2 h 5 min
    Bit rate mode               : Constant
    Bit rate                    : 640 kb/s
    Channel(s)                  : 6 channels
    Channel layout              : L R C LFE Ls Rs
    Sampling rate               : 48.0 kHz
    Frame rate                  : 31.250 FPS (1536 SPF)
    Compression mode            : Lossy
    Stream size                 : 573 MiB (8%)
    Language                    : Korean
    Service kind                : Complete Main
    Default                     : Yes
    Forced                      : No
    
    Text
    ID                          : 3
    Format                      : UTF-8
    Codec ID                    : S_TEXT/UTF8
    Codec ID/Info               : UTF-8 Plain Text
    Duration                    : 1 h 58 min
    Bit rate                    : 42 b/s
    Frame rate                  : 0.159 FPS
    Count of elements           : 1133
    Stream size                 : 36.5 KiB (0%)
    Language                    : English
    Default                     : No
    Forced                      : No
    
    Menu
    00:00:00.000                : en:Studio Logo
    00:00:27.000                : en:Opening Credits
    00:00:56.000                : en:Scene 3
    00:06:51.000                : en:Scene 4
    00:08:09.000                : en:Title Sequence
    00:08:19.000                : en:Scene 6
    00:16:22.000                : en:Scene 7
    00:22:38.000                : en:Scene 8
    00:29:09.000                : en:Scene 9
    00:36:02.000                : en:Scene 10
    00:43:46.000                : en:Scene 11
    00:50:02.000                : en:Scene 12
    00:54:33.000                : en:Scene 13
    01:02:05.000                : en:Scene 14
    01:09:22.000                : en:Scene 15
    01:16:44.000                : en:Scene 16
    01:24:36.000                : en:Scene 17
    01:32:12.000                : en:Scene 18
    01:38:28.000                : en:Scene 19
    01:48:08.000                : en:Scene 20
    01:54:54.000                : en:Scene 21
    01:59:53.000                : en:End Credits
    Download - Mirror 1:
    Download - Mirror 2:
     
  2. Loading...


Share This Page