Google Drive I.Am.Number.Four.2011.1080p.BluRay.DTS.x264-NiP

Discussion in 'BDRip | 720p/1080p' started by DDLbase, Jul 27, 2020.

  1. DDLbase

    DDLbase Administrator Staff Member

    [​IMG]

    Rating: 6.1/10 based on 224,560 user ratings

    Genres: Action, Adventure, Sci-Fi, Thriller

    Aliens and their Guardians are hiding on Earth from intergalactic bounty hunters. They can only be killed in numerical order, and Number Four is next on the list. This is his story.

    [​IMG]
    Code:
    General
    Unique ID                   : 176232376581512757390911318295313534070 (0x84951F01E8D3926EBF1D08901EF24C76)
    Complete name               : I.Am.Number.Four.2011.1080p.BluRay.DTS.x264-NiP.mkv
    Format                      : Matroska
    Format version              : Version 2
    File size                   : 13.0 GiB
    Duration                    : 1 h 49 min
    Overall bit rate            : 17.0 Mb/s
    Movie name                  : I Am Number Four (2011)
    Encoded date                : UTC 2011-05-20 13:42:08
    Writing application         : mkvmerge v4.7.0 ('Just Like You Imagined') built on Apr 21 2011 01:13:14
    Writing library             : libebml v1.2.0 + libmatroska v1.1.0
    
    Video
    ID                          : 1
    Format                      : AVC
    Format/Info                 : Advanced Video Codec
    Format profile              : [email protected]
    Format settings             : CABAC / 4 Ref Frames
    Format settings, CABAC      : Yes
    Format settings, Reference  : 4 frames
    Codec ID                    : V_MPEG4/ISO/AVC
    Duration                    : 1 h 49 min
    Bit rate                    : 15.3 Mb/s
    Width                       : 1 920 pixels
    Height                      : 1 038 pixels
    Display aspect ratio        : 1.85:1
    Frame rate mode             : Constant
    Frame rate                  : 23.976 (24000/1001) FPS
    Color space                 : YUV
    Chroma subsampling          : 4:2:0
    Bit depth                   : 8 bits
    Scan type                   : Progressive
    Bits/(Pixel*Frame)          : 0.321
    Stream size                 : 11.7 GiB (90%)
    Writing library             : x264 core 115 r1995 c1e60b9
    Encoding settings           : cabac=1 / ref=4 / deblock=1:-3:-2 / analyse=0x3:0x113 / me=tesa / subme=10 / psy=1 / psy_rd=1.20:0.00 / mixed_ref=1 / me_range=24 / chroma_me=1 / trellis=2 / 8x8dct=1 / cqm=0 / deadzone=21,11 / fast_pskip=0 / chroma_qp_offset=-2 / threads=12 / sliced_threads=0 / nr=0 / decimate=1 / interlaced=0 / bluray_compat=0 / constrained_intra=0 / bframes=8 / b_pyramid=2 / b_adapt=2 / b_bias=0 / direct=1 / weightb=1 / open_gop=0 / weightp=2 / keyint=250 / keyint_min=23 / scenecut=40 / intra_refresh=0 / rc=crf / mbtree=0 / crf=17.5 / qcomp=0.60 / qpmin=0 / qpmax=69 / qpstep=4 / ip_ratio=1.40 / pb_ratio=1.30 / aq=2:0.60
    Language                    : English
    Default                     : Yes
    Forced                      : No
    Color range                 : Limited
    Matrix coefficients         : BT.709
    
    Audio
    ID                          : 2
    Format                      : DTS
    Format/Info                 : Digital Theater Systems
    Codec ID                    : A_DTS
    Duration                    : 1 h 49 min
    Bit rate mode               : Constant
    Bit rate                    : 1 344 kb/s
    Channel(s)                  : 6 channels
    Channel layout              : C L R Ls Rs LFE
    Sampling rate               : 48.0 kHz
    Frame rate                  : 93.750 FPS (512 SPF)
    Bit depth                   : 24 bits
    Compression mode            : Lossy
    Stream size                 : 1.03 GiB (8%)
    Title                       : DTS 5.1 @ 1344 kbps
    Language                    : English
    Default                     : Yes
    Forced                      : No
    
    Text #1
    ID                          : 3
    Format                      : UTF-8
    Codec ID                    : S_TEXT/UTF8
    Codec ID/Info               : UTF-8 Plain Text
    Language                    : English
    Default                     : No
    Forced                      : No
    
    Text #2
    ID                          : 4
    Format                      : UTF-8
    Codec ID                    : S_TEXT/UTF8
    Codec ID/Info               : UTF-8 Plain Text
    Title                       : SDH
    Language                    : English
    Default                     : No
    Forced                      : No
    
    Text #3
    ID                          : 5
    Format                      : UTF-8
    Codec ID                    : S_TEXT/UTF8
    Codec ID/Info               : UTF-8 Plain Text
    Language                    : French
    Default                     : No
    Forced                      : No
    
    Text #4
    ID                          : 6
    Format                      : UTF-8
    Codec ID                    : S_TEXT/UTF8
    Codec ID/Info               : UTF-8 Plain Text
    Language                    : Russian
    Default                     : No
    Forced                      : No
    
    Text #5
    ID                          : 7
    Format                      : UTF-8
    Codec ID                    : S_TEXT/UTF8
    Codec ID/Info               : UTF-8 Plain Text
    Language                    : Spanish
    Default                     : No
    Forced                      : No
    
    Menu
    00:00:00.000                : en:01. Number Three
    00:04:09.249                : en:02. The Vision
    00:11:33.192                : en:03. Welcome To Paradise
    00:18:00.454                : en:04. Back To School
    00:25:41.373                : en:05. Legacy Revealed
    00:30:58.106                : en:06. Getting To Know Sarah
    00:39:29.534                : en:07. Malcolm Spellman
    00:45:30.311                : en:08. Haunted Hayride
    00:54:51.663                : en:09. Your Dad Was Right
    01:03:43.403                : en:10. Finding Henri
    01:14:23.209                : en:11. Who Are You?
    01:21:59.790                : en:12. Darkroom
    01:27:39.337                : en:13. Working Together
    01:32:27.625                : en:14. Rising From The Ashes
    01:37:03.568                : en:15. We Know Where To Go
    01:41:56.152                : en:16. End Credits
    Download:
     
  2. Loading...


Share This Page