Google Drive I.Care.a.Lot.2020.1080p.AMZN.WEB-DL.DDP5.1.H.264-NTG

Discussion in 'Web-DL / Webrip | 1080p' started by DDLbase, Feb 20, 2021.

  1. DDLbase

    DDLbase Administrator Staff Member

    [​IMG]

    Rating: 6.3/10 based on 7,039 user ratings

    Genres: Comedy, Crime, Thriller

    A crooked legal guardian who drains the savings of her elderly wards meets her match when a woman she tries to swindle turns out to be more than she first appears.

    [​IMG]
    Code:
    General
    Unique ID                   : 96113160036119855353743881069177001385 (0x484EB8A6E03CCD2D8AFEEC50F3B2D5A9)
    Complete name               : I.Care.a.Lot.2020.1080p.AMZN.WEB-DL.DDP5.1.H.264-NTG.mkv
    Format                      : Matroska
    Format version              : Version 4
    File size                   : 8.01 GiB
    Duration                    : 1 h 58 min
    Overall bit rate            : 9 667 kb/s
    Writing application         : mkvmerge v21.0.0 ('Tardigrades Will Inherit The Earth') 64-bit
    Writing library             : libebml v1.3.5 + libmatroska v1.4.8
    
    Video
    ID                          : 1
    Format                      : AVC
    Format/Info                 : Advanced Video Codec
    Format profile              : [email protected]
    Format settings             : CABAC / 4 Ref Frames
    Format settings, CABAC      : Yes
    Format settings, Reference  : 4 frames
    Codec ID                    : V_MPEG4/ISO/AVC
    Duration                    : 1 h 58 min
    Bit rate mode               : Constant
    Bit rate                    : 9 025 kb/s
    Nominal bit rate            : 10 000 kb/s
    Width                       : 1 920 pixels
    Height                      : 800 pixels
    Display aspect ratio        : 2.40:1
    Frame rate mode             : Constant
    Frame rate                  : 23.976 (24000/1001) FPS
    Color space                 : YUV
    Chroma subsampling          : 4:2:0
    Bit depth                   : 8 bits
    Scan type                   : Progressive
    Bits/(Pixel*Frame)          : 0.245
    Stream size                 : 7.48 GiB (93%)
    Default                     : Yes
    Forced                      : No
    Color range                 : Limited
    Color primaries             : BT.709
    Transfer characteristics    : BT.709
    Matrix coefficients         : BT.709
    
    Audio
    ID                          : 2
    Format                      : E-AC-3
    Format/Info                 : Enhanced AC-3
    Commercial name             : Dolby Digital Plus
    Codec ID                    : A_EAC3
    Duration                    : 1 h 58 min
    Bit rate mode               : Constant
    Bit rate                    : 640 kb/s
    Channel(s)                  : 6 channels
    Channel layout              : L R C LFE Ls Rs
    Sampling rate               : 48.0 kHz
    Frame rate                  : 31.250 FPS (1536 SPF)
    Compression mode            : Lossy
    Stream size                 : 543 MiB (7%)
    Language                    : English
    Service kind                : Complete Main
    Default                     : Yes
    Forced                      : No
    
    Text #1
    ID                          : 3
    Format                      : UTF-8
    Codec ID                    : S_TEXT/UTF8
    Codec ID/Info               : UTF-8 Plain Text
    Duration                    : 1 h 51 min
    Bit rate                    : 53 b/s
    Count of elements           : 1230
    Stream size                 : 43.6 KiB (0%)
    Language                    : English
    Default                     : No
    Forced                      : No
    
    Text #2
    ID                          : 4
    Format                      : UTF-8
    Codec ID                    : S_TEXT/UTF8
    Codec ID/Info               : UTF-8 Plain Text
    Duration                    : 1 h 52 min
    Bit rate                    : 56 b/s
    Count of elements           : 1339
    Stream size                 : 46.2 KiB (0%)
    Title                       : SDH
    Language                    : English
    Default                     : No
    Forced                      : No
    
    Text #3
    ID                          : 5
    Format                      : UTF-8
    Codec ID                    : S_TEXT/UTF8
    Codec ID/Info               : UTF-8 Plain Text
    Duration                    : 1 h 57 min
    Bit rate                    : 58 b/s
    Count of elements           : 1648
    Stream size                 : 50.5 KiB (0%)
    Language                    : French
    Default                     : No
    Forced                      : No
    
    Text #4
    ID                          : 6
    Format                      : UTF-8
    Codec ID                    : S_TEXT/UTF8
    Codec ID/Info               : UTF-8 Plain Text
    Duration                    : 1 h 57 min
    Bit rate                    : 44 b/s
    Count of elements           : 1383
    Stream size                 : 38.6 KiB (0%)
    Language                    : Italian
    Default                     : No
    Forced                      : No
    
    Menu
    00:00:00.000                : en:Amazon Original
    00:00:06.000                : en:Studio Logos
    00:00:43.000                : en:Opening Credits
    00:01:09.000                : en:Not good people
    00:03:05.000                : en:A day in court
    00:06:29.000                : en:Threats
    00:07:41.000                : en:A day at the office
    00:10:10.000                : en:A cherry
    00:12:57.000                : en:Researching a new client
    00:15:30.000                : en:Picking up Mrs. Peterson
    00:22:53.000                : en:Going through the assets
    00:26:33.000                : en:Unexpected visitor
    00:27:59.000                : en:Reporting back to the boss
    00:31:56.000                : en:The diamonds
    00:33:17.000                : en:Roman finds his mother
    00:36:01.000                : en:A meeting with Marla
    00:44:47.000                : en:The worst mistake she'll ever make
    00:49:01.000                : en:A trip to the bank
    00:50:08.000                : en:A scandal for the judge
    00:53:38.000                : en:Roman throws a fit
    00:54:09.000                : en:A tour of the facility
    00:54:54.000                : en:The truth about Mrs. Peterson
    01:00:20.000                : en:Police interview
    01:01:54.000                : en:Calling in a favor
    01:03:23.000                : en:Panic at home
    01:05:27.000                : en:Marla refuses to lose
    01:08:14.000                : en:Moving to a psych facility
    01:10:07.000                : en:Fencing the diamonds
    01:12:25.000                : en:A break in
    01:12:55.000                : en:You can't spend money when you're dead
    01:23:04.000                : en:Trying to survive
    01:32:38.000                : en:Making a plan
    01:41:38.000                : en:A new opportunity
    01:48:30.000                : en:A very rich woman
    01:52:54.000                : en:End Credits
    Download - Mirror 1:
    Download - Mirror 2:
     
  2. Loading...


Share This Page