Google Drive I.Dont.Feel.at.Home.in.This.World.Anymore.2017.1080p.NF.WEB-DL.DD5.1.x264-monkee

Discussion in 'Web-DL / Webrip | 1080p' started by DDLbase, Aug 29, 2020.

  1. DDLbase

    DDLbase Administrator Staff Member

    [​IMG]

    Rating: 6.9/10 based on 46,051 user ratings

    Genre: Comedy, Crime, Drama

    When a depressed woman is burgled, she finds a new sense of purpose by tracking down the thieves alongside her obnoxious neighbour. But they soon find themselves dangerously out of their depth against a pack of degenerate criminals.

    [​IMG]
    Code:
    General
    Unique ID                   : 233898737053385935870726157977219917506 (0xAFF74217125F546EAC3D35119C3A66C2)
    Complete name               : I.Dont.Feel.at.Home.in.This.World.Anymore.2017.1080p.NF.WEB-DL.DD5.1.x264-monkee.mkv
    Format                      : Matroska
    Format version              : Version 4
    File size                   : 4.60 GiB
    Duration                    : 1 h 36 min
    Overall bit rate mode       : Variable
    Overall bit rate            : 6 784 kb/s
    Encoded date                : UTC 2017-07-15 02:30:57
    Writing application         : mkvmerge v13.0.0 ('The Juggler') 64bit
    Writing library             : libebml v1.3.4 + libmatroska v1.4.5
    
    Video
    ID                          : 1
    Format                      : AVC
    Format/Info                 : Advanced Video Codec
    Format profile              : [email protected]
    Format settings             : CABAC / 3 Ref Frames
    Format settings, CABAC      : Yes
    Format settings, Reference  : 3 frames
    Codec ID                    : V_MPEG4/ISO/AVC
    Duration                    : 1 h 36 min
    Bit rate mode               : Variable
    Bit rate                    : 6 490 kb/s
    Maximum bit rate            : 9 735 kb/s
    Width                       : 1 920 pixels
    Height                      : 1 080 pixels
    Display aspect ratio        : 16:9
    Frame rate mode             : Constant
    Frame rate                  : 23.976 (24000/1001) FPS
    Color space                 : YUV
    Chroma subsampling          : 4:2:0
    Bit depth                   : 8 bits
    Scan type                   : Progressive
    Bits/(Pixel*Frame)          : 0.131
    Stream size                 : 4.33 GiB (94%)
    Writing library             : x264 core 118
    Encoding settings           : cabac=1 / ref=3 / deblock=1:0:0 / analyse=0x1:0x111 / me=umh / subme=10 / psy=1 / psy_rd=1.00:0.00 / mixed_ref=1 / me_range=24 / chroma_me=1 / trellis=2 / 8x8dct=0 / cqm=0 / deadzone=21,11 / fast_pskip=1 / chroma_qp_offset=-2 / threads=8 / sliced_threads=0 / nr=0 / decimate=1 / interlaced=0 / bluray_compat=0 / constrained_intra=0 / bframes=2 / b_pyramid=0 / b_adapt=2 / b_bias=0 / direct=3 / weightb=1 / open_gop=0 / weightp=2 / keyint=48 / keyint_min=25 / scenecut=0 / intra_refresh=0 / rc_lookahead=0 / rc=2pass / mbtree=1 / bitrate=6490 / ratetol=1.0 / qcomp=0.50 / qpmin=6 / qpmax=51 / qpstep=4 / cplxblur=20.0 / qblur=0.5 / vbv_maxrate=9735 / vbv_bufsize=12980 / nal_hrd=vbr / ip_ratio=1.40 / aq=1:1.00
    Default                     : Yes
    Forced                      : No
    
    Audio
    ID                          : 2
    Format                      : AC-3
    Format/Info                 : Audio Coding 3
    Commercial name             : Dolby Digital
    Codec ID                    : A_AC3
    Duration                    : 1 h 36 min
    Bit rate mode               : Constant
    Bit rate                    : 384 kb/s
    Channel(s)                  : 6 channels
    Channel layout              : L R C LFE Ls Rs
    Sampling rate               : 48.0 kHz
    Frame rate                  : 31.250 FPS (1536 SPF)
    Compression mode            : Lossy
    Stream size                 : 266 MiB (6%)
    Language                    : English
    Service kind                : Complete Main
    Default                     : Yes
    Forced                      : No
    
    Text #1
    ID                          : 3
    Format                      : UTF-8
    Codec ID                    : S_TEXT/UTF8
    Codec ID/Info               : UTF-8 Plain Text
    Duration                    : 1 h 35 min
    Bit rate                    : 51 b/s
    Count of elements           : 1322
    Stream size                 : 35.6 KiB (0%)
    Language                    : English
    Default                     : No
    Forced                      : No
    
    Text #2
    ID                          : 4
    Format                      : UTF-8
    Codec ID                    : S_TEXT/UTF8
    Codec ID/Info               : UTF-8 Plain Text
    Duration                    : 1 h 36 min
    Bit rate                    : 33 b/s
    Count of elements           : 935
    Stream size                 : 23.8 KiB (0%)
    Language                    : Spanish
    Default                     : No
    Forced                      : No
    
    Text #3
    ID                          : 5
    Format                      : UTF-8
    Codec ID                    : S_TEXT/UTF8
    Codec ID/Info               : UTF-8 Plain Text
    Duration                    : 1 h 36 min
    Bit rate                    : 33 b/s
    Count of elements           : 859
    Stream size                 : 23.9 KiB (0%)
    Language                    : French
    Default                     : No
    Forced                      : No
    
    Text #4
    ID                          : 6
    Format                      : UTF-8
    Codec ID                    : S_TEXT/UTF8
    Codec ID/Info               : UTF-8 Plain Text
    Duration                    : 1 h 36 min
    Bit rate                    : 33 b/s
    Count of elements           : 948
    Stream size                 : 23.6 KiB (0%)
    Title                       : Simplified
    Language                    : Chinese
    Default                     : No
    Forced                      : No
    
    Text #5
    ID                          : 7
    Format                      : UTF-8
    Codec ID                    : S_TEXT/UTF8
    Codec ID/Info               : UTF-8 Plain Text
    Duration                    : 1 h 36 min
    Bit rate                    : 32 b/s
    Count of elements           : 948
    Stream size                 : 23.0 KiB (0%)
    Title                       : Traditional
    Language                    : Chinese
    Default                     : No
    Forced                      : No
    Download:
     
  2. Loading...


Share This Page