Google Drive I.Think.We.Are.Alone.Now.2018.BluRay.1080p.TrueHD.Atmos.7.1.AVC.REMUX-FraMeSToR

Discussion in 'BD REMUX | 1080p' started by DDLbase, Mar 25, 2020.

  1. DDLbase

    DDLbase Administrator Staff Member

    [​IMG]

    I Think We're Alone Now (2018)

    [​IMG] 5.7/10 [​IMG] 6,342

    Plot

    I Think We're Alone Now is a 2018 American post-apocalyptic drama film directed by Reed Morano, who also acted as cinematographer, and written by Mike Makowsky. It stars Peter Dinklage and Elle Fanning as two survivors who learn to live together after a worldwide pandemic wipes out Earth's population .
    The film had its world premiere at the Sundance Film Festival on January 21, 2018. It was released on September 14, 2018, by Momentum Pictures.

    Movie Info
    • Rating: R
    • Genre: Drama, Mystery, Sci-Fi
    • Directed By: Reed Morano
    • Written By: Mike Makowsky
    • Starring: Peter Dinklage, Elle Fanning, Charlotte Gainsbourg, Paul Giamatti
    • Release Date: 21 Sep 2018
    • Runtime: 93 min
    • On Disk/Streaming: 21 Sep 2018
    • Box Office (USA): N/A
    • Awards: 2 wins & 2 nominations.
    • Studio: Momentum Pictures
    Code:
    General
    Unique ID : 258385056017183456484717105445712360161 (0xC26326D2F6FA2E490A4BE509033EF2E1)
    Complete name : I.Think.We.Are.Alone.Now.2018.BluRay.1080p.TrueHD.Atmos.7.1.AVC.REMUX-FraMeSToR.mkv
    Format : Matroska
    Format version : Version 4 / Version 2
    File size : 24.0 GiB
    Duration : 1 h 39 min
    Overall bit rate mode : Variable
    Overall bit rate : 34.6 Mb/s
    Movie name : I Think We're Alone Now
    Encoded date : UTC 2018-10-17 13:31:05
    Writing application : mkvmerge v27.0.0 ('Metropolis') 64-bit
    Writing library : libebml v1.3.6 + libmatroska v1.4.9
    
    Video
    ID : 1
    Format : AVC
    Format/Info : Advanced Video Codec
    Format profile : [email protected]
    Format settings : CABAC / 4 Ref Frames
    Format settings, CABAC : Yes
    Format settings, ReFrames : 4 frames
    Codec ID : V_MPEG4/ISO/AVC
    Duration : 1 h 39 min
    Bit rate mode : Variable
    Bit rate : 30.0 Mb/s
    Maximum bit rate : 35.0 Mb/s
    Width : 1 920 pixels
    Height : 1 080 pixels
    Display aspect ratio : 16:9
    Frame rate mode : Constant
    Frame rate : 23.976 (24000/1001) FPS
    Standard : NTSC
    Color space : YUV
    Chroma subsampling : 4:2:0
    Bit depth : 8 bits
    Scan type : Progressive
    Bits/(Pixel*Frame) : 0.603
    Stream size : 20.8 GiB (87%)
    Default : Yes
    Forced : No
    Color range : Limited
    Color primaries : BT.709
    Transfer characteristics : BT.709
    Matrix coefficients : BT.709
    
    Audio #1
    ID : 2
    Format : TrueHD
    Format profile : TrueHD+Atmos / TrueHD
    Codec ID : A_TRUEHD
    Duration : 1 h 39 min
    Bit rate mode : Variable
    Bit rate : 3 896 kb/s
    Maximum bit rate : 6 630 kb/s
    Channel(s) : Object Based / 8 channels
    Channel positions : Object Based / Front: L C R, Side: L R, Back: L R, LFE
    Sampling rate : / 48.0 kHz
    Frame rate : 1 200.000 FPS (40 SPF)
    Compression mode : Lossless
    Stream size : 2.70 GiB (11%)
    Title : TrueHD Atmos 7.1
    Language : English
    Default : Yes
    Forced : No
    
    Audio #2
    ID : 3
    Format : AC-3
    Format/Info : Audio Coding 3
    Codec ID : A_AC3
    Duration : 1 h 39 min
    Bit rate mode : Constant
    Bit rate : 640 kb/s
    Channel(s) : 6 channels
    Channel positions : Front: L C R, Side: L R, LFE
    Sampling rate : 48.0 kHz
    Frame rate : 31.250 FPS (1536 SPF)
    Bit depth : 16 bits
    Compression mode : Lossy
    Stream size : 454 MiB (2%)
    Title : AC3 5.1-EX
    Language : English
    Service kind : Complete Main
    Default : No
    Forced : No
    
    Text
    ID : 4
    Format : PGS
    Codec ID : S_HDMV/PGS
    Codec ID/Info : Picture based subtitle format used on BDs/HD-DVDs
    Duration : 1 h 38 min
    Bit rate : 18.2 kb/s
    Count of elements : 1332
    Stream size : 12.7 MiB (0%)
    Title : English (SDH)
    Language : English
    Default : No
    Forced : No
    
    Menu
    00:00:00.000 : en:Chapter 01
    00:04:48.580 : en:Chapter 02
    00:10:57.407 : en:Chapter 03
    00:17:14.450 : en:Chapter 04
    00:23:01.755 : en:Chapter 05
    00:29:39.403 : en:Chapter 06
    00:36:45.787 : en:Chapter 07
    00:43:04.707 : en:Chapter 08
    00:48:05.800 : en:Chapter 09
    00:53:10.938 : en:Chapter 10
    00:59:09.921 : en:Chapter 11
    01:05:52.073 : en:Chapter 12
    01:11:50.348 : en:Chapter 13
    01:18:23.157 : en:Chapter 14
    01:26:04.576 : en:Chapter 15
    01:33:41.616 : en:Chapter 16
    Download:
     
  2. Loading...


Share This Page