Google Drive In.A.World.2013.LiMiTED.1080p.BluRay.x264-iMMORTALs

Discussion in 'BDRip | 720p/1080p' started by DDLbase, Apr 2, 2021.

  1. DDLbase

    DDLbase Administrator Staff Member

    [​IMG]

    Rating: 6.7/10 based on 30,976 user ratings

    Genre: Comedy

    An underachieving voice coach finds herself competing in the movie trailer voice-over profession against her arrogant father and his protégé.

    [​IMG]
    Code:
    General
    Unique ID                   : 208932926249895833254490117921308419370 (0x9D2F04954FBD6404A321677F987C252A)
    Complete name               : In.A.World.2013.LiMiTED.1080p.BluRay.x264-iMMORTALs.mkv
    Format                      : Matroska
    Format version              : Version 4
    File size                   : 6.56 GiB
    Duration                    : 1 h 32 min
    Overall bit rate            : 10.1 Mb/s
    Encoded date                : UTC 2014-01-11 17:55:08
    Writing application         : mkvmerge v6.5.0 ('Isn't she lovely') built on Oct 20 2013 12:50:05
    Writing library             : libebml v1.3.0 + libmatroska v1.4.1
    
    Video
    ID                          : 1
    Format                      : AVC
    Format/Info                 : Advanced Video Codec
    Format profile              : [email protected]
    Format settings             : CABAC / 5 Ref Frames
    Format settings, CABAC      : Yes
    Format settings, Reference  : 5 frames
    Codec ID                    : V_MPEG4/ISO/AVC
    Duration                    : 1 h 32 min
    Bit rate                    : 8 590 kb/s
    Width                       : 1 920 pixels
    Height                      : 800 pixels
    Display aspect ratio        : 2.40:1
    Frame rate mode             : Constant
    Frame rate                  : 23.976 (24000/1001) FPS
    Color space                 : YUV
    Chroma subsampling          : 4:2:0
    Bit depth                   : 8 bits
    Scan type                   : Progressive
    Bits/(Pixel*Frame)          : 0.233
    Stream size                 : 5.45 GiB (83%)
    Writing library             : x264 core 140 r2377 1ca7bb9
    Encoding settings           : cabac=1 / ref=5 / deblock=1:0:0 / analyse=0x3:0x133 / me=umh / subme=7 / psy=1 / psy_rd=1.00:0.00 / mixed_ref=1 / me_range=16 / chroma_me=1 / trellis=1 / 8x8dct=1 / cqm=0 / deadzone=21,11 / fast_pskip=0 / chroma_qp_offset=-2 / threads=18 / lookahead_threads=3 / sliced_threads=0 / nr=0 / decimate=1 / interlaced=0 / bluray_compat=0 / constrained_intra=0 / bframes=3 / b_pyramid=2 / b_adapt=2 / b_bias=0 / direct=3 / weightb=1 / open_gop=0 / weightp=2 / keyint=250 / keyint_min=23 / scenecut=40 / intra_refresh=0 / rc_lookahead=50 / rc=2pass / mbtree=1 / bitrate=8590 / ratetol=1.0 / qcomp=0.60 / qpmin=0 / qpmax=69 / qpstep=4 / cplxblur=20.0 / qblur=0.5 / ip_ratio=1.40 / aq=1:1.00
    Language                    : English
    Default                     : Yes
    Forced                      : No
    
    Audio
    ID                          : 2
    Format                      : DTS
    Format/Info                 : Digital Theater Systems
    Codec ID                    : A_DTS
    Duration                    : 1 h 32 min
    Bit rate mode               : Constant
    Bit rate                    : 1 509 kb/s
    Channel(s)                  : 6 channels
    Channel layout              : C L R Ls Rs LFE
    Sampling rate               : 48.0 kHz
    Frame rate                  : 93.750 FPS (512 SPF)
    Bit depth                   : 24 bits
    Compression mode            : Lossy
    Stream size                 : 1 003 MiB (15%)
    Language                    : English
    Default                     : Yes
    Forced                      : No
    
    Text #1
    ID                          : 3
    Format                      : UTF-8
    Codec ID                    : S_TEXT/UTF8
    Codec ID/Info               : UTF-8 Plain Text
    Title                       : Forced
    Language                    : English
    Default                     : Yes
    Forced                      : No
    
    Text #2
    ID                          : 4
    Format                      : UTF-8
    Codec ID                    : S_TEXT/UTF8
    Codec ID/Info               : UTF-8 Plain Text
    Language                    : English
    Default                     : No
    Forced                      : No
    
    Menu
    00:00:00.000                : en:00:00:00.000
    00:10:13.738                : en:00:10:13.738
    00:16:15.474                : en:00:16:15.474
    00:21:09.185                : en:00:21:09.185
    00:25:32.573                : en:00:25:32.573
    00:30:58.565                : en:00:30:58.565
    00:37:32.750                : en:00:37:32.750
    00:43:17.762                : en:00:43:17.762
    00:47:28.345                : en:00:47:28.345
    00:53:36.797                : en:00:53:36.797
    01:01:49.706                : en:01:01:49.706
    01:05:59.455                : en:01:05:59.455
    01:09:57.527                : en:01:09:57.527
    01:14:01.354                : en:01:14:01.354
    01:18:09.143                : en:01:18:09.143
    01:22:22.312                : en:01:22:22.312
    Download - Mirror 1:
    Download - Mirror 2:
     
  2. Loading...


Share This Page