Google Drive In.My.Fathers.Den.2004.1080p.BluRay.DD5.1.x264-SA89

Discussion in 'BDRip | 720p/1080p' started by DDLbase, Sep 26, 2020.

  1. DDLbase

    DDLbase Administrator Staff Member

    [​IMG]

    Rating: 7.5/10 based on 7,280 user ratings

    Genres: Drama, Mystery, Thriller

    A disillusioned war journalist's return home is blighted when he becomes implicated in the mysterious disappearance of a teenage girl he has befriended.

    [​IMG]
    Code:
    General
    Complete name               : In.My.Fathers.Den.2004.1080p.BluRay.DD5.1.x264-SA89.mkv
    Format                      : Matroska
    Format version              : Version 4
    File size                   : 13.6 GiB
    Duration                    : 2 h 7 min
    Overall bit rate            : 15.3 Mb/s
    Encoded date                : UTC 2016-02-23 08:42:53
    Writing application         : mkvmerge v8.8.0 ('Wind at my back') 64bit
    Writing library             : libebml v1.3.3 + libmatroska v1.4.4
    
    Video
    ID                          : 1
    Format                      : AVC
    Format/Info                 : Advanced Video Codec
    Format profile              : [email protected]
    Format settings             : CABAC / 5 Ref Frames
    Format settings, CABAC      : Yes
    Format settings, Reference  : 5 frames
    Codec ID                    : V_MPEG4/ISO/AVC
    Duration                    : 2 h 7 min
    Bit rate                    : 14.4 Mb/s
    Width                       : 1 918 pixels
    Height                      : 816 pixels
    Display aspect ratio        : 2.35:1
    Frame rate mode             : Constant
    Frame rate                  : 23.976 (24000/1001) FPS
    Color space                 : YUV
    Chroma subsampling          : 4:2:0
    Bit depth                   : 8 bits
    Scan type                   : Progressive
    Bits/(Pixel*Frame)          : 0.385
    Stream size                 : 12.8 GiB (95%)
    Writing library             : x264 core 148 r2665 a01e339
    Encoding settings           : cabac=1 / ref=5 / deblock=1:-3:-3 / analyse=0x3:0x133 / me=umh / subme=10 / psy=1 / psy_rd=1.00:0.00 / mixed_ref=1 / me_range=24 / chroma_me=1 / trellis=2 / 8x8dct=1 / cqm=0 / deadzone=21,11 / fast_pskip=1 / chroma_qp_offset=-2 / threads=6 / lookahead_threads=1 / sliced_threads=0 / nr=0 / decimate=1 / interlaced=0 / bluray_compat=0 / constrained_intra=0 / bframes=8 / b_pyramid=2 / b_adapt=2 / b_bias=0 / direct=3 / weightb=1 / open_gop=0 / weightp=2 / keyint=250 / keyint_min=25 / scenecut=40 / intra_refresh=0 / rc_lookahead=60 / rc=crf / mbtree=0 / crf=17.0 / qcomp=0.60 / qpmin=0 / qpmax=69 / qpstep=4 / vbv_maxrate=62500 / vbv_bufsize=78125 / crf_max=0.0 / nal_hrd=none / filler=0 / ip_ratio=1.40 / pb_ratio=1.30 / aq=1:0.80
    Default                     : Yes
    Forced                      : No
    
    Audio #1
    ID                          : 2
    Format                      : AC-3
    Format/Info                 : Audio Coding 3
    Commercial name             : Dolby Digital
    Codec ID                    : A_AC3
    Duration                    : 2 h 7 min
    Bit rate mode               : Constant
    Bit rate                    : 640 kb/s
    Channel(s)                  : 6 channels
    Channel layout              : L R C LFE Ls Rs
    Sampling rate               : 48.0 kHz
    Frame rate                  : 31.250 FPS (1536 SPF)
    Compression mode            : Lossy
    Stream size                 : 583 MiB (4%)
    Language                    : English
    Service kind                : Complete Main
    Default                     : Yes
    Forced                      : No
    
    Audio #2
    ID                          : 3
    Format                      : AC-3
    Format/Info                 : Audio Coding 3
    Commercial name             : Dolby Digital
    Codec ID                    : A_AC3
    Duration                    : 2 h 7 min
    Bit rate mode               : Constant
    Bit rate                    : 192 kb/s
    Channel(s)                  : 2 channels
    Channel layout              : L R
    Sampling rate               : 48.0 kHz
    Frame rate                  : 31.250 FPS (1536 SPF)
    Compression mode            : Lossy
    Stream size                 : 175 MiB (1%)
    Title                       : Commentary: Emily Barclay, Trevor Haysom & Brad McGann
    Language                    : English
    Service kind                : Complete Main
    Default                     : No
    Forced                      : No
    
    Text
    ID                          : 4
    Format                      : UTF-8
    Codec ID                    : S_TEXT/UTF8
    Codec ID/Info               : UTF-8 Plain Text
    Duration                    : 2 h 1 min
    Bit rate                    : 41 b/s
    Count of elements           : 1056
    Stream size                 : 36.9 KiB (0%)
    Language                    : English
    Default                     : No
    Forced                      : No
    
    Menu
    00:00:00.000                : en:Chapter 01
    00:02:47.750                : en:Chapter 02
    00:09:32.697                : en:Chapter 03
    00:18:00.079                : en:Chapter 04
    00:26:46.730                : en:Chapter 05
    00:34:45.875                : en:Chapter 06
    00:43:13.966                : en:Chapter 07
    00:51:21.786                : en:Chapter 08
    00:58:31.883                : en:Chapter 09
    01:03:33.434                : en:Chapter 10
    01:13:21.564                : en:Chapter 11
    01:20:51.013                : en:Chapter 12
    01:30:51.863                : en:Chapter 13
    01:40:01.620                : en:Chapter 14
    01:54:13.596                : en:Chapter 15
    02:03:02.082                : en:Chapter 16
    Download:
     
  2. Loading...


Share This Page