Google Drive Independence.Day.1996.EXTENDED.2160p.UHD.BluRay.x265-DEPTH

Discussion in 'BDRip | 4K' started by DDLbase, Apr 1, 2021.

  1. DDLbase

    DDLbase Administrator Staff Member

    [​IMG]

    Rating: 7.0/10 based on 531,098 user ratings

    Genres: Action, Adventure, Sci-Fi

    The aliens are coming and their goal is to invade and destroy Earth. Fighting superior technology, mankind’s best weapon is the will to survive.

    [​IMG]
    Code:
    General
    Unique ID                   : 174047835207337131539173280011380629279 (0x82F064CD55AD8B83ADD9829839709F1F)
    Complete name               : Independence.Day.1996.EXTENDED.2160p.UHD.BluRay.x265-DEPTH.mkv
    Format                      : Matroska
    Format version              : Version 4
    File size                   : 29.4 GiB
    Duration                    : 2 h 33 min
    Overall bit rate mode       : Variable
    Overall bit rate            : 27.4 Mb/s
    Encoded date                : UTC 2017-11-04 17:43:29
    Writing application         : mkvmerge v17.0.0 ('Be Ur Friend') 64-bit
    Writing library             : libebml v1.3.5 + libmatroska v1.4.8
    
    Video
    ID                          : 1
    Format                      : HEVC
    Format/Info                 : High Efficiency Video Coding
    Format profile              : Main [email protected]@High
    HDR format                  : SMPTE ST 2086, HDR10 compatible
    Codec ID                    : V_MPEGH/ISO/HEVC
    Duration                    : 2 h 33 min
    Bit rate                    : 20.8 Mb/s
    Width                       : 3 840 pixels
    Height                      : 1 608 pixels
    Display aspect ratio        : 2.40:1
    Frame rate mode             : Constant
    Frame rate                  : 23.976 (24000/1001) FPS
    Color space                 : YUV
    Chroma subsampling          : 4:2:0 (Type 2)
    Bit depth                   : 10 bits
    Bits/(Pixel*Frame)          : 0.141
    Stream size                 : 22.3 GiB (76%)
    Writing library             : x265 2.5+27-0e168bdeb48b:[Windows][GCC 6.2.1][64 bit] 10bit
    Encoding settings           : cpuid=1173503 / frame-threads=4 / numa-pools=20 / wpp / no-pmode / no-pme / no-psnr / no-ssim / log-level=2 / input-csp=1 / input-res=3840x1608 / interlace=0 / total-frames=220900 / level-idc=51 / high-tier=1 / uhd-bd=0 / ref=4 / no-allow-non-conformance / repeat-headers / annexb / aud / hrd / info / hash=0 / no-temporal-layers / no-open-gop / min-keyint=1 / keyint=24 / bframes=4 / b-adapt=2 / b-pyramid / bframe-bias=0 / rc-lookahead=25 / lookahead-slices=4 / scenecut=40 / no-intra-refresh / ctu=64 / min-cu-size=8 / rect / no-amp / max-tu-size=32 / tu-inter-depth=1 / tu-intra-depth=1 / limit-tu=0 / rdoq-level=2 / dynamic-rd=0.00 / no-ssim-rd / signhide / no-tskip / nr-intra=0 / nr-inter=0 / no-constrained-intra / no-strong-intra-smoothing / max-merge=3 / limit-refs=3 / limit-modes / me=3 / subme=3 / merange=57 / temporal-mvp / weightp / no-weightb / no-analyze-src-pics / deblock=-3:-3 / no-sao / no-sao-non-deblock / rd=4 / no-early-skip / rskip / no-fast-intra / no-tskip-fast / no-cu-lossless / no-b-intra / no-splitrd-skip / rdpenalty=0 / psy-rd=2.00 / psy-rdoq=1.00 / no-rd-refine / analysis-reuse-mode=0 / no-lossless / cbqpoffs=0 / crqpoffs=0 / rc=crf / crf=19.0 / qcomp=0.60 / qpstep=4 / stats-write=0 / stats-read=0 / vbv-maxrate=160000 / vbv-bufsize=160000 / vbv-init=0.9 / crf-max=0.0 / crf-min=0.0 / ipratio=1.40 / pbratio=1.30 / aq-mode=1 / aq-strength=1.00 / cutree / zone-count=0 / no-strict-cbr / qg-size=32 / no-rc-grain / qpmax=69 / qpmin=0 / no-const-vbv / sar=1 / overscan=0 / videoformat=5 / range=0 / colorprim=9 / transfer=16 / colormatrix=9 / chromaloc=1 / chromaloc-top=2 / chromaloc-bottom=2 / display-window=0 / master-display=G(13250,34500)B(7500,3000)R(34000,16000)WP(15635,16450)L(10000000,0) / max-cll=0,0 / min-luma=0 / max-luma=1023 / log2-max-poc-lsb=8 / vui-timing-info / vui-hrd-info / slices=1 / opt-qp-pps / opt-ref-list-length-pps / no-multi-pass-opt-rps / scenecut-bias=0.05 / no-opt-cu-delta-qp / no-aq-motion / hdr / hdr-opt / no-dhdr10-opt / analysis-reuse-level=5 / scale-factor=0 / refine-intra=0 / refine-inter=0 / refine-mv=0 / no-limit-sao / ctu-info=0
    Default                     : Yes
    Forced                      : No
    Color range                 : Limited
    Color primaries             : BT.2020
    Transfer characteristics    : PQ
    Matrix coefficients         : BT.2020 non-constant
    Mastering display color pri : Display P3
    Mastering display luminance : min: 0.0000 cd/m2, max: 1000 cd/m2
    
    Audio #1
    ID                          : 2
    Format                      : DTS XLL
    Format/Info                 : Digital Theater Systems
    Commercial name             : DTS-HD Master Audio
    Codec ID                    : A_DTS
    Duration                    : 2 h 33 min
    Bit rate mode               : Variable
    Bit rate                    : 6 139 kb/s
    Channel(s)                  : 8 channels
    Channel layout              : C L R LFE Lb Rb Lss Rss
    Sampling rate               : 48.0 kHz
    Frame rate                  : 93.750 FPS (512 SPF)
    Bit depth                   : 24 bits
    Compression mode            : Lossless
    Stream size                 : 6.59 GiB (22%)
    Language                    : English
    Default                     : Yes
    Forced                      : No
    
    Audio #2
    ID                          : 3
    Format                      : AAC LC
    Format/Info                 : Advanced Audio Codec Low Complexity
    Codec ID                    : A_AAC-2
    Duration                    : 2 h 33 min
    Bit rate                    : 66.2 kb/s
    Channel(s)                  : 1 channel
    Channel layout              : C
    Sampling rate               : 48.0 kHz
    Frame rate                  : 46.875 FPS (1024 SPF)
    Compression mode            : Lossy
    Delay relative to video     : 9 ms
    Stream size                 : 71.7 MiB (0%)
    Title                       : Commentary with director Roland Emmerich and producer Dean Devlin
    Language                    : English
    Default                     : No
    Forced                      : No
    
    Audio #3
    ID                          : 4
    Format                      : AAC LC
    Format/Info                 : Advanced Audio Codec Low Complexity
    Codec ID                    : A_AAC-2
    Duration                    : 2 h 33 min
    Bit rate                    : 111 kb/s
    Channel(s)                  : 2 channels
    Channel layout              : L R
    Sampling rate               : 48.0 kHz
    Frame rate                  : 46.875 FPS (1024 SPF)
    Compression mode            : Lossy
    Delay relative to video     : 9 ms
    Stream size                 : 122 MiB (0%)
    Title                       : Commentary with visual effects supervisors Volker Engel and Douglas Smith
    Language                    : English
    Default                     : No
    Forced                      : No
    
    Text #1
    ID                          : 5
    Format                      : PGS
    Muxing mode                 : zlib
    Codec ID                    : S_HDMV/PGS
    Codec ID/Info               : Picture based subtitle format used on BDs/HD-DVDs
    Duration                    : 2 h 23 min
    Bit rate                    : 35.2 kb/s
    Count of elements           : 3573
    Stream size                 : 36.1 MiB (0%)
    Title                       : SDH
    Language                    : English
    Default                     : No
    Forced                      : No
    
    Text #2
    ID                          : 6
    Format                      : PGS
    Muxing mode                 : zlib
    Codec ID                    : S_HDMV/PGS
    Codec ID/Info               : Picture based subtitle format used on BDs/HD-DVDs
    Duration                    : 2 h 32 min
    Bit rate                    : 33.3 kb/s
    Count of elements           : 3200
    Stream size                 : 36.4 MiB (0%)
    Language                    : Spanish
    Default                     : No
    Forced                      : No
    
    Text #3
    ID                          : 7
    Format                      : PGS
    Muxing mode                 : zlib
    Codec ID                    : S_HDMV/PGS
    Codec ID/Info               : Picture based subtitle format used on BDs/HD-DVDs
    Duration                    : 2 h 32 min
    Bit rate                    : 30.4 kb/s
    Count of elements           : 3164
    Stream size                 : 33.2 MiB (0%)
    Language                    : French
    Default                     : No
    Forced                      : No
    
    Text #4
    ID                          : 8
    Format                      : PGS
    Muxing mode                 : zlib
    Codec ID                    : S_HDMV/PGS
    Codec ID/Info               : Picture based subtitle format used on BDs/HD-DVDs
    Duration                    : 2 h 32 min
    Bit rate                    : 29.4 kb/s
    Count of elements           : 3200
    Stream size                 : 32.2 MiB (0%)
    Language                    : Danish
    Default                     : No
    Forced                      : No
    
    Text #5
    ID                          : 9
    Format                      : PGS
    Muxing mode                 : zlib
    Codec ID                    : S_HDMV/PGS
    Codec ID/Info               : Picture based subtitle format used on BDs/HD-DVDs
    Duration                    : 2 h 32 min
    Bit rate                    : 28.7 kb/s
    Count of elements           : 2796
    Stream size                 : 31.4 MiB (0%)
    Language                    : Dutch
    Default                     : No
    Forced                      : No
    
    Text #6
    ID                          : 10
    Format                      : PGS
    Muxing mode                 : zlib
    Codec ID                    : S_HDMV/PGS
    Codec ID/Info               : Picture based subtitle format used on BDs/HD-DVDs
    Duration                    : 2 h 32 min
    Bit rate                    : 35.1 kb/s
    Count of elements           : 3187
    Stream size                 : 38.4 MiB (0%)
    Language                    : Finnish
    Default                     : No
    Forced                      : No
    
    Text #7
    ID                          : 11
    Format                      : PGS
    Muxing mode                 : zlib
    Codec ID                    : S_HDMV/PGS
    Codec ID/Info               : Picture based subtitle format used on BDs/HD-DVDs
    Duration                    : 2 h 32 min
    Bit rate                    : 31.4 kb/s
    Count of elements           : 3174
    Stream size                 : 34.3 MiB (0%)
    Language                    : German
    Default                     : No
    Forced                      : No
    
    Text #8
    ID                          : 12
    Format                      : PGS
    Muxing mode                 : zlib
    Codec ID                    : S_HDMV/PGS
    Codec ID/Info               : Picture based subtitle format used on BDs/HD-DVDs
    Duration                    : 2 h 32 min
    Bit rate                    : 29.9 kb/s
    Count of elements           : 3193
    Stream size                 : 32.7 MiB (0%)
    Language                    : Italian
    Default                     : No
    Forced                      : No
    
    Text #9
    ID                          : 13
    Format                      : PGS
    Muxing mode                 : zlib
    Codec ID                    : S_HDMV/PGS
    Codec ID/Info               : Picture based subtitle format used on BDs/HD-DVDs
    Duration                    : 2 h 32 min
    Bit rate                    : 19.4 kb/s
    Count of elements           : 3310
    Stream size                 : 21.2 MiB (0%)
    Language                    : Japanese
    Default                     : No
    Forced                      : No
    
    Text #10
    ID                          : 14
    Format                      : PGS
    Muxing mode                 : zlib
    Codec ID                    : S_HDMV/PGS
    Codec ID/Info               : Picture based subtitle format used on BDs/HD-DVDs
    Duration                    : 2 h 32 min
    Bit rate                    : 29.2 kb/s
    Count of elements           : 3192
    Stream size                 : 31.9 MiB (0%)
    Language                    : Norwegian
    Default                     : No
    Forced                      : No
    
    Text #11
    ID                          : 15
    Format                      : PGS
    Muxing mode                 : zlib
    Codec ID                    : S_HDMV/PGS
    Codec ID/Info               : Picture based subtitle format used on BDs/HD-DVDs
    Duration                    : 2 h 32 min
    Bit rate                    : 30.5 kb/s
    Count of elements           : 3152
    Stream size                 : 33.3 MiB (0%)
    Language                    : Swedish
    Default                     : No
    Forced                      : No
    
    Text #12
    ID                          : 16
    Format                      : PGS
    Muxing mode                 : zlib
    Codec ID                    : S_HDMV/PGS
    Codec ID/Info               : Picture based subtitle format used on BDs/HD-DVDs
    Duration                    : 2 h 24 min
    Bit rate                    : 30.7 kb/s
    Count of elements           : 2074
    Stream size                 : 31.8 MiB (0%)
    Title                       : Commentary 1
    Language                    : English
    Default                     : No
    Forced                      : No
    
    Text #13
    ID                          : 17
    Format                      : PGS
    Muxing mode                 : zlib
    Codec ID                    : S_HDMV/PGS
    Codec ID/Info               : Picture based subtitle format used on BDs/HD-DVDs
    Duration                    : 2 h 33 min
    Bit rate                    : 25.2 kb/s
    Count of elements           : 2013
    Stream size                 : 27.7 MiB (0%)
    Title                       : Commentary 1
    Language                    : French
    Default                     : No
    Forced                      : No
    
    Text #14
    ID                          : 18
    Format                      : PGS
    Muxing mode                 : zlib
    Codec ID                    : S_HDMV/PGS
    Codec ID/Info               : Picture based subtitle format used on BDs/HD-DVDs
    Duration                    : 2 h 33 min
    Bit rate                    : 26.3 kb/s
    Count of elements           : 2046
    Stream size                 : 28.8 MiB (0%)
    Title                       : Commentary 1
    Language                    : German
    Default                     : No
    Forced                      : No
    
    Text #15
    ID                          : 19
    Format                      : PGS
    Muxing mode                 : zlib
    Codec ID                    : S_HDMV/PGS
    Codec ID/Info               : Picture based subtitle format used on BDs/HD-DVDs
    Duration                    : 2 h 33 min
    Bit rate                    : 28.0 kb/s
    Count of elements           : 2086
    Stream size                 : 30.7 MiB (0%)
    Title                       : Commentary 1
    Language                    : Italian
    Default                     : No
    Forced                      : No
    
    Text #16
    ID                          : 20
    Format                      : PGS
    Muxing mode                 : zlib
    Codec ID                    : S_HDMV/PGS
    Codec ID/Info               : Picture based subtitle format used on BDs/HD-DVDs
    Duration                    : 2 h 24 min
    Bit rate                    : 20.5 kb/s
    Count of elements           : 1840
    Stream size                 : 21.2 MiB (0%)
    Title                       : Commentary 1
    Language                    : Japanese
    Default                     : No
    Forced                      : No
    
    Text #17
    ID                          : 21
    Format                      : PGS
    Muxing mode                 : zlib
    Codec ID                    : S_HDMV/PGS
    Codec ID/Info               : Picture based subtitle format used on BDs/HD-DVDs
    Duration                    : 2 h 31 min
    Bit rate                    : 42.2 kb/s
    Count of elements           : 2836
    Stream size                 : 45.8 MiB (0%)
    Title                       : Commentary 2
    Language                    : English
    Default                     : No
    Forced                      : No
    
    Text #18
    ID                          : 22
    Format                      : PGS
    Muxing mode                 : zlib
    Codec ID                    : S_HDMV/PGS
    Codec ID/Info               : Picture based subtitle format used on BDs/HD-DVDs
    Duration                    : 2 h 33 min
    Bit rate                    : 36.9 kb/s
    Count of elements           : 2784
    Stream size                 : 40.5 MiB (0%)
    Title                       : Commentary 2
    Language                    : French
    Default                     : No
    Forced                      : No
    
    Text #19
    ID                          : 23
    Format                      : PGS
    Muxing mode                 : zlib
    Codec ID                    : S_HDMV/PGS
    Codec ID/Info               : Picture based subtitle format used on BDs/HD-DVDs
    Duration                    : 2 h 31 min
    Bit rate                    : 40.4 kb/s
    Count of elements           : 2760
    Stream size                 : 43.8 MiB (0%)
    Title                       : Commentary 2
    Language                    : German
    Default                     : No
    Forced                      : No
    
    Text #20
    ID                          : 24
    Format                      : PGS
    Muxing mode                 : zlib
    Codec ID                    : S_HDMV/PGS
    Codec ID/Info               : Picture based subtitle format used on BDs/HD-DVDs
    Duration                    : 2 h 31 min
    Bit rate                    : 38.7 kb/s
    Count of elements           : 2746
    Stream size                 : 42.0 MiB (0%)
    Title                       : Commentary 2
    Language                    : Italian
    Default                     : No
    Forced                      : No
    
    Text #21
    ID                          : 25
    Format                      : PGS
    Muxing mode                 : zlib
    Codec ID                    : S_HDMV/PGS
    Codec ID/Info               : Picture based subtitle format used on BDs/HD-DVDs
    Duration                    : 2 h 31 min
    Bit rate                    : 28.4 kb/s
    Count of elements           : 2588
    Stream size                 : 30.8 MiB (0%)
    Title                       : Commentary 2
    Language                    : Japanese
    Default                     : No
    Forced                      : No
    
    Text #22
    ID                          : 26
    Format                      : PGS
    Muxing mode                 : zlib
    Codec ID                    : S_HDMV/PGS
    Codec ID/Info               : Picture based subtitle format used on BDs/HD-DVDs
    Duration                    : 2 h 30 min
    Bit rate                    : 17.2 kb/s
    Count of elements           : 487
    Stream size                 : 18.6 MiB (0%)
    Title                       : ID4 Datastream (trivia)
    Language                    : English
    Default                     : No
    Forced                      : No
    
    Menu
    00:00:00.000                : en:00:00:00.000
    00:02:43.872                : en:00:02:43.872
    00:05:01.468                : en:00:05:01.468
    00:07:32.577                : en:00:07:32.577
    00:08:02.315                : en:00:08:02.315
    00:09:21.603                : en:00:09:21.603
    00:10:29.879                : en:00:10:29.879
    00:12:06.601                : en:00:12:06.601
    00:14:08.514                : en:00:14:08.514
    00:14:56.729                : en:00:14:56.729
    00:18:56.969                : en:00:18:56.969
    00:25:33.115                : en:00:25:33.115
    00:27:23.725                : en:00:27:23.725
    00:30:10.809                : en:00:30:10.809
    00:32:18.103                : en:00:32:18.103
    00:34:12.634                : en:00:34:12.634
    00:36:39.405                : en:00:36:39.405
    00:38:17.378                : en:00:38:17.378
    00:40:05.111                : en:00:40:05.111
    00:41:02.168                : en:00:41:02.168
    00:41:33.449                : en:00:41:33.449
    00:44:15.611                : en:00:44:15.611
    00:44:37.925                : en:00:44:37.925
    00:46:02.802                : en:00:46:02.802
    00:48:48.008                : en:00:48:48.008
    00:50:42.039                : en:00:50:42.039
    00:54:22.718                : en:00:54:22.718
    00:57:22.481                : en:00:57:22.481
    00:58:05.148                : en:00:58:05.148
    01:03:10.995                : en:01:03:10.995
    01:04:30.158                : en:01:04:30.158
    01:06:00.748                : en:01:06:00.748
    01:06:52.967                : en:01:06:52.967
    01:08:20.012                : en:01:08:20.012
    01:11:22.027                : en:01:11:22.027
    01:12:50.324                : en:01:12:50.324
    01:14:38.140                : en:01:14:38.140
    01:18:29.538                : en:01:18:29.538
    01:21:19.207                : en:01:21:19.207
    01:23:04.729                : en:01:23:04.729
    01:25:59.779                : en:01:25:59.779
    01:27:49.681                : en:01:27:49.681
    01:35:25.261                : en:01:35:25.261
    01:38:52.218                : en:01:38:52.218
    01:39:55.573                : en:01:39:55.573
    01:42:51.790                : en:01:42:51.790
    01:49:33.233                : en:01:49:33.233
    01:53:25.340                : en:01:53:25.340
    01:55:01.060                : en:01:55:01.060
    01:59:38.755                : en:01:59:38.755
    02:04:03.394                : en:02:04:03.394
    02:07:41.403                : en:02:07:41.403
    02:10:50.676                : en:02:10:50.676
    02:11:52.613                : en:02:11:52.613
    02:17:21.316                : en:02:17:21.316
    02:21:17.343                : en:02:21:17.343
    02:24:48.680                : en:02:24:48.680
    Download - Mirror 1:
    Download - Mirror 2:
     
  2. Loading...


Share This Page