Google Drive Infinite.2021.1080p.AMZN.WEB-DL.DDP5.1.H.264-MZABI

Discussion in 'Web-DL / Webrip | 1080p' started by DDLbase, Jun 10, 2021.

  1. DDLbase

    DDLbase Administrator Staff Member

    [​IMG]

    Rating: 6.5/10 based on 131 user ratings

    Genres: Sci-Fi, Thriller

    A man discovers that his hallucinations are actually visions from past lives.

    [​IMG]
    Code:
    General
    Unique ID                   : 28454084722838794302533824529806917242 (0x15680EB081D18A625C8C6E3529BFFE7A)
    Complete name               : Infinite.2021.1080p.AMZN.WEB-DL.DDP5.1.H.264-MZABI.mkv
    Format                      : Matroska
    Format version              : Version 4
    File size                   : 6.02 GiB
    Duration                    : 1 h 46 min
    Overall bit rate            : 8 099 kb/s
    Encoded date                : UTC 2021-06-10 06:07:16
    Writing application         : mkvmerge v52.0.0 ('Secret For The Mad') 64-bit
    Writing library             : libebml v1.4.1 + libmatroska v1.6.2
    
    Video
    ID                          : 1
    Format                      : AVC
    Format/Info                 : Advanced Video Codec
    Format profile              : [email protected]
    Format settings             : CABAC / 4 Ref Frames
    Format settings, CABAC      : Yes
    Format settings, Reference  : 4 frames
    Codec ID                    : V_MPEG4/ISO/AVC
    Duration                    : 1 h 46 min
    Bit rate mode               : Constant
    Bit rate                    : 7 457 kb/s
    Nominal bit rate            : 10 000 kb/s
    Width                       : 1 920 pixels
    Height                      : 800 pixels
    Display aspect ratio        : 2.40:1
    Frame rate mode             : Constant
    Frame rate                  : 24.000 FPS
    Color space                 : YUV
    Chroma subsampling          : 4:2:0
    Bit depth                   : 8 bits
    Scan type                   : Progressive
    Bits/(Pixel*Frame)          : 0.202
    Stream size                 : 5.54 GiB (92%)
    Default                     : Yes
    Forced                      : No
    Color range                 : Limited
    Color primaries             : BT.709
    Transfer characteristics    : BT.709
    Matrix coefficients         : BT.709
    
    Audio
    ID                          : 2
    Format                      : E-AC-3
    Format/Info                 : Enhanced AC-3
    Commercial name             : Dolby Digital Plus
    Codec ID                    : A_EAC3
    Duration                    : 1 h 46 min
    Bit rate mode               : Constant
    Bit rate                    : 640 kb/s
    Channel(s)                  : 6 channels
    Channel layout              : L R C LFE Ls Rs
    Sampling rate               : 48.0 kHz
    Frame rate                  : 31.250 FPS (1536 SPF)
    Compression mode            : Lossy
    Stream size                 : 487 MiB (8%)
    Title                       : English
    Language                    : English
    Service kind                : Complete Main
    Default                     : No
    Forced                      : No
    
    Text #1
    ID                          : 3
    Format                      : UTF-8
    Codec ID                    : S_TEXT/UTF8
    Codec ID/Info               : UTF-8 Plain Text
    Duration                    : 1 h 36 min
    Bit rate                    : 43 b/s
    Count of elements           : 954
    Stream size                 : 31.0 KiB (0%)
    Title                       : English
    Language                    : English
    Default                     : No
    Forced                      : No
    
    Text #2
    ID                          : 4
    Format                      : UTF-8
    Codec ID                    : S_TEXT/UTF8
    Codec ID/Info               : UTF-8 Plain Text
    Duration                    : 1 h 40 min
    Bit rate                    : 47 b/s
    Count of elements           : 1128
    Stream size                 : 35.0 KiB (0%)
    Title                       : English [SDH]
    Language                    : English
    Default                     : No
    Forced                      : No
    Download - Mirror 1:
    Download - Mirror 2:
     
  2. Loading...


Share This Page