MEGA Ingrid Goes West (2017) 1080p BluRay REMUX AVC DTS-HD MA FGT

Discussion in 'BD REMUX | 1080p' started by DDLbase, Aug 29, 2019.

  1. DDLbase

    DDLbase Administrator Staff Member

    [​IMG]

    Code:
    General
    Unique ID                                : 200390620598604253761528486345486488828 (0x96C1D465CFBAD4FA8A71A01E63C1D4FC)
    Complete name                            : Ingrid.Goes.West.2017.1080p.BluRay.REMUX.AVC.DTS-HD.MA.5.1-FGT.mkv
    Format                                   : Matroska
    Format version                           : Version 4 / Version 2
    File size                                : 18.6 GiB
    Duration                                 : 1 h 37 min
    Overall bit rate mode                    : Variable
    Overall bit rate                         : 27.2 Mb/s
    Movie name                               : Ingrid.Goes.West.2017.1080p.BluRay.REMUX.AVC.DTS-HD.MA.5.1-FGT
    Encoded date                             : UTC 2017-10-30 09:24:52
    Writing application                      : mkvmerge v16.0.0 ('Protest') 64-bit
    Writing library                          : libebml v1.3.5 + libmatroska v1.4.8
    Cover                                    : Yes
    Attachments                              : small_cover.jpg / small_cover_land.jpg / cover.jpg / cover_land.jpg
    
    Video
    ID                                       : 1
    Format                                   : AVC
    Format/Info                              : Advanced Video Codec
    Format profile                           : [email protected]
    Format settings, CABAC                   : Yes
    Format settings, ReFrames                : 4 frames
    Codec ID                                 : V_MPEG4/ISO/AVC
    Duration                                 : 1 h 37 min
    Bit rate mode                            : Variable
    Maximum bit rate                         : 36.0 Mb/s
    Width                                    : 1 920 pixels
    Height                                   : 1 080 pixels
    Display aspect ratio                     : 16:9
    Frame rate mode                          : Constant
    Frame rate                               : 23.976 (24000/1001) FPS
    Color space                              : YUV
    Chroma subsampling                       : 4:2:0
    Bit depth                                : 8 bits
    Scan type                                : Progressive
    Title                                    : Ingrid.Goes.West.2017.1080p.BluRay.REMUX.AVC.DTS-HD.MA.5.1-FGT
    Language                                 : English
    Default                                  : No
    Forced                                   : No
    
    Audio #1
    ID                                       : 2
    Format                                   : DTS
    Format/Info                              : Digital Theater Systems
    Format profile                           : MA / Core
    Mode                                     : 16
    Format settings, Endianness              : Big
    Codec ID                                 : A_DTS
    Duration                                 : 1 h 37 min
    Bit rate mode                            : Variable / Constant
    Bit rate                                 : Unknown / 1 509 kb/s
    Channel(s)                               : 6 channels
    Channel positions                        : Front: L C R, Side: L R, LFE
    Sampling rate                            : 48.0 kHz
    Frame rate                               : 93.750 FPS (512 spf)
    Bit depth                                : 24 bits
    Compression mode                         : Lossless / Lossy
    Title                                    : Ingrid.Goes.West.2017.1080p.BluRay.REMUX.AVC.DTS-HD.MA.5.1-FGT
    Language                                 : English
    Default                                  : Yes
    Forced                                   : No
    
    Audio #2
    ID                                       : 3
    Format                                   : DTS
    Format/Info                              : Digital Theater Systems
    Mode                                     : 16
    Format settings, Endianness              : Big
    Codec ID                                 : A_DTS
    Duration                                 : 1 h 37 min
    Bit rate mode                            : Constant
    Bit rate                                 : 1 509 kb/s
    Channel(s)                               : 6 channels
    Channel positions                        : Front: L C R, Side: L R, LFE
    Sampling rate                            : 48.0 kHz
    Frame rate                               : 93.750 FPS (512 spf)
    Bit depth                                : 24 bits
    Compression mode                         : Lossy
    Stream size                              : 1.03 GiB (6%)
    Title                                    : Ingrid.Goes.West.2017.1080p.BluRay.REMUX.AVC.DTS-HD.MA.5.1-FGT
    Language                                 : English
    Default                                  : No
    Forced                                   : No
    
    Audio #3
    ID                                       : 4
    Format                                   : DTS
    Format/Info                              : Digital Theater Systems
    Format profile                           : MA / Core
    Mode                                     : 16
    Format settings, Endianness              : Big
    Codec ID                                 : A_DTS
    Duration                                 : 1 h 37 min
    Bit rate mode                            : Variable / Constant
    Bit rate                                 : Unknown / 255 kb/s
    Channel(s)                               : 2 channels
    Channel positions                        : Front: L R
    Sampling rate                            : 48.0 kHz
    Frame rate                               : 93.750 FPS (512 spf)
    Bit depth                                : 24 bits
    Compression mode                         : Lossless / Lossy
    Title                                    : Ingrid.Goes.West.2017.1080p.BluRay.REMUX.AVC.DTS-HD.MA.5.1-FGT
    Language                                 : English
    Default                                  : No
    Forced                                   : No
    
    Audio #4
    ID                                       : 5
    Format                                   : DTS
    Format/Info                              : Digital Theater Systems
    Mode                                     : 16
    Format settings, Endianness              : Big
    Codec ID                                 : A_DTS
    Duration                                 : 1 h 37 min
    Bit rate mode                            : Constant
    Bit rate                                 : 255 kb/s
    Channel(s)                               : 2 channels
    Channel positions                        : Front: L R
    Sampling rate                            : 48.0 kHz
    Frame rate                               : 93.750 FPS (512 spf)
    Bit depth                                : 24 bits
    Compression mode                         : Lossy
    Stream size                              : 179 MiB (1%)
    Title                                    : Ingrid.Goes.West.2017.1080p.BluRay.REMUX.AVC.DTS-HD.MA.5.1-FGT
    Language                                 : English
    Default                                  : No
    Forced                                   : No
    
    Text
    ID                                       : 6
    Format                                   : PGS
    Muxing mode                              : zlib
    Codec ID                                 : S_HDMV/PGS
    Codec ID/Info                            : Picture based subtitle format used on BDs/HD-DVDs
    Title                                    : English-PGS
    Language                                 : English
    Default                                  : Yes
    Forced                                   : No
    
    Menu
    00:00:00.000                             : en:Chapter 00
    00:13:03.324                             : en:Chapter 01
    00:22:55.916                             : en:Chapter 02
    00:32:29.781                             : en:Chapter 03
    00:42:07.107                             : en:Chapter 04
    00:53:04.181                             : en:Chapter 05
    01:03:17.752                             : en:Chapter 06
    01:13:17.226                             : en:Chapter 07
    01:22:27.692                             : en:Chapter 08
    01:32:53.526                             : en:Chapter 09
    Download:
     
  2. Loading...


Share This Page