Google Drive Inheritance.2020.1080p.BluRay.x264.DTS-HD.MA.5.1-FGT

Discussion in 'BDRip | 720p/1080p' started by DDLbase, Jul 9, 2020.

  1. DDLbase

    DDLbase Administrator Staff Member

    [​IMG]

    Rating: 5.4/10 based on 3,241 user ratings

    Genres: Drama, Mystery, Thriller

    A patriarch of a wealthy and powerful family suddenly passes away, leaving his daughter with a shocking secret inheritance that threatens to unravel and destroy the family.

    [​IMG]
    Code:
    General
    Unique ID                   : 214461271199024728464681091422229339768 (0xA157BD0886CE4450A7EBB255E5CB9E78)
    Complete name               : Inheritance.2020.1080p.BluRay.x264.DTS-HD.MA.5.1-FGT.mkv
    Format                      : Matroska
    Format version              : Version 4
    File size                   : 11.6 GiB
    Duration                    : 1 h 51 min
    Overall bit rate mode       : Variable
    Overall bit rate            : 14.9 Mb/s
    Movie name                  : Inheritance.2020.1080p.BluRay.x264.DTS-HD.MA.5.1-FGT
    Encoded date                : UTC 2020-07-09 13:47:28
    Writing application         : mkvmerge v47.0.0 ('Black Flag') 64-bit
    Writing library             : libebml v1.3.10 + libmatroska v1.5.2
    Cover                       : Yes
    Attachments                 : small_cover.jpg / small_cover_land.jpg / cover.jpg / cover_land.jpg
    
    Video
    ID                          : 1
    Format                      : AVC
    Format/Info                 : Advanced Video Codec
    Format profile              : [email protected]
    Format settings             : CABAC / 4 Ref Frames
    Format settings, CABAC      : Yes
    Format settings, Reference  : 4 frames
    Codec ID                    : V_MPEG4/ISO/AVC
    Duration                    : 1 h 51 min
    Bit rate                    : 11.5 Mb/s
    Width                       : 1 920 pixels
    Height                      : 804 pixels
    Display aspect ratio        : 2.40:1
    Frame rate mode             : Constant
    Frame rate                  : 23.976 (24000/1001) FPS
    Color space                 : YUV
    Chroma subsampling          : 4:2:0
    Bit depth                   : 8 bits
    Scan type                   : Progressive
    Bits/(Pixel*Frame)          : 0.311
    Stream size                 : 8.95 GiB (77%)
    Title                       : Inheritance.2020.1080p.BluRay.x264.DTS-HD.MA.5.1-FGT
    Writing library             : x264 core 148 r2748 97eaef2
    Encoding settings           : cabac=1 / ref=4 / deblock=1:-2:-2 / analyse=0x3:0x113 / me=umh / subme=9 / psy=1 / psy_rd=1.00:0.15 / mixed_ref=1 / me_range=16 / chroma_me=1 / trellis=2 / 8x8dct=1 / cqm=0 / deadzone=21,11 / fast_pskip=1 / chroma_qp_offset=-3 / threads=48 / lookahead_threads=3 / sliced_threads=0 / nr=0 / decimate=1 / interlaced=0 / bluray_compat=0 / constrained_intra=0 / bframes=3 / b_pyramid=2 / b_adapt=1 / b_bias=0 / direct=3 / weightb=1 / open_gop=0 / weightp=2 / keyint=250 / keyint_min=25 / scenecut=40 / intra_refresh=0 / rc_lookahead=50 / rc=2pass / mbtree=1 / bitrate=11500 / ratetol=1.0 / qcomp=0.60 / qpmin=0 / qpmax=69 / qpstep=4 / cplxblur=20.0 / qblur=0.5 / vbv_maxrate=31250 / vbv_bufsize=31250 / nal_hrd=none / filler=0 / ip_ratio=1.40 / aq=1:1.00
    Language                    : English
    Default                     : Yes
    Forced                      : No
    
    Audio
    ID                          : 2
    Format                      : DTS XLL
    Format/Info                 : Digital Theater Systems
    Commercial name             : DTS-HD Master Audio
    Codec ID                    : A_DTS
    Duration                    : 1 h 51 min
    Bit rate mode               : Variable
    Bit rate                    : 3 417 kb/s
    Channel(s)                  : 6 channels
    Channel layout              : C L R Ls Rs LFE
    Sampling rate               : 48.0 kHz
    Frame rate                  : 93.750 FPS (512 SPF)
    Bit depth                   : 24 bits
    Compression mode            : Lossless
    Stream size                 : 2.66 GiB (23%)
    Title                       : Inheritance.2020.1080p.BluRay.x264.DTS-HD.MA.5.1-FGT
    Language                    : English
    Default                     : Yes
    Forced                      : No
    
    Text #1
    ID                          : 3
    Format                      : UTF-8
    Codec ID                    : S_TEXT/UTF8
    Codec ID/Info               : UTF-8 Plain Text
    Duration                    : 1 h 44 min
    Bit rate                    : 51 b/s
    Count of elements           : 1362
    Stream size                 : 39.8 KiB (0%)
    Title                       : English-SRT
    Language                    : English
    Default                     : Yes
    Forced                      : No
    
    Text #2
    ID                          : 4
    ID in the original source m : 4608 (0x1200)
    Format                      : PGS
    Muxing mode                 : zlib
    Codec ID                    : S_HDMV/PGS
    Codec ID/Info               : Picture based subtitle format used on BDs/HD-DVDs
    Duration                    : 1 h 44 min
    Bit rate                    : 26.0 kb/s
    Count of elements           : 2904
    Stream size                 : 19.5 MiB (0%)
    Title                       : English-PGS
    Language                    : English
    Default                     : No
    Forced                      : No
    Original source medium      : Blu-ray
    
    Text #3
    ID                          : 5
    ID in the original source m : 4609 (0x1201)
    Format                      : PGS
    Muxing mode                 : zlib
    Codec ID                    : S_HDMV/PGS
    Codec ID/Info               : Picture based subtitle format used on BDs/HD-DVDs
    Duration                    : 1 h 44 min
    Bit rate                    : 30.1 kb/s
    Count of elements           : 3052
    Stream size                 : 22.5 MiB (0%)
    Title                       : French-PGS
    Language                    : French
    Default                     : No
    Forced                      : No
    Original source medium      : Blu-ray
    
    Menu
    00:00:00.000                : en:Chapter 01
    00:14:12.852                : en:Chapter 02
    00:29:59.005                : en:Chapter 03
    00:42:51.944                : en:Chapter 04
    00:56:45.944                : en:Chapter 05
    01:12:59.083                : en:Chapter 06
    01:27:31.913                : en:Chapter 07
    01:45:38.415                : en:Chapter 08
    Download - Mirror 1:
    Download - Mirror 2:
     
  2. Loading...


Share This Page