Google Drive Inkheart.2008.1080p.BluRay.DTS.x264-HiDt

Discussion in 'BDRip | 720p/1080p' started by DDLbase, Oct 5, 2020.

  1. DDLbase

    DDLbase Administrator Staff Member

    [​IMG]

    Rating: 6.1/10 based on 72,594 user ratings

    Genres: Adventure, Family, Fantasy

    A teenage girl discovers her father has an amazing talent to bring characters out of their books and must try to stop a freed villain from destroying them all, with the help of her father, her aunt, and a storybook’s hero.

    [​IMG]
    Code:
    General
    Unique ID                   : 176729770377689400489046494214644695528 (0x84F4EA6A3BFD0B1E8DF14AE2FD0601E8)
    Complete name               : Inkheart.2008.1080p.BluRay.DTS.x264-HiDt.mkv
    Format                      : Matroska
    Format version              : Version 1
    File size                   : 8.72 GiB
    Duration                    : 1 h 46 min
    Overall bit rate            : 11.8 Mb/s
    Encoded date                : UTC 2009-04-17 08:56:19
    Writing application         : mkvmerge v2.2.0 ('Turn It On Again') built on Mar  4 2008 12:58:26
    Writing library             : libebml v0.7.7 + libmatroska v0.8.1
    
    Video
    ID                          : 1
    Format                      : AVC
    Format/Info                 : Advanced Video Codec
    Format profile              : [email protected]
    Format settings             : CABAC / 5 Ref Frames
    Format settings, CABAC      : Yes
    Format settings, Reference  : 5 frames
    Format settings, GOP        : N=1
    Codec ID                    : V_MPEG4/ISO/AVC
    Duration                    : 1 h 46 min
    Bit rate                    : 10.3 Mb/s
    Width                       : 1 920 pixels
    Height                      : 816 pixels
    Display aspect ratio        : 2.35:1
    Frame rate mode             : Constant
    Frame rate                  : 23.976 FPS
    Color space                 : YUV
    Chroma subsampling          : 4:2:0
    Bit depth                   : 8 bits
    Scan type                   : Progressive
    Bits/(Pixel*Frame)          : 0.273
    Stream size                 : 7.43 GiB (85%)
    Writing library             : x264 core 67 r1139M 1024283
    Encoding settings           : cabac=1 / ref=5 / deblock=1:-3:-3 / analyse=0x3:0x113 / me=umh / subme=9 / psy_rd=1.0:0.0 / mixed_ref=1 / me_range=32 / chroma_me=1 / trellis=2 / 8x8dct=1 / cqm=0 / deadzone=21,11 / chroma_qp_offset=-2 / threads=3 / nr=0 / decimate=0 / mbaff=0 / bframes=3 / b_pyramid=1 / b_adapt=2 / b_bias=0 / direct=3 / wpredb=1 / keyint=250 / keyint_min=25 / scenecut=40 / rc=2pass / bitrate=10258 / ratetol=1.0 / qcomp=0.60 / qpmin=10 / qpmax=51 / qpstep=4 / cplxblur=20.0 / qblur=0.5 / ip_ratio=1.40 / pb_ratio=1.30 / aq=1:0.80
    Language                    : English
    Default                     : Yes
    Forced                      : No
    
    Audio
    ID                          : 2
    Format                      : DTS
    Format/Info                 : Digital Theater Systems
    Codec ID                    : A_DTS
    Duration                    : 1 h 46 min
    Bit rate mode               : Constant
    Bit rate                    : 1 510 kb/s
    Channel(s)                  : 6 channels
    Channel layout              : C L R Ls Rs LFE
    Sampling rate               : 48.0 kHz
    Frame rate                  : 93.750 FPS (512 SPF)
    Bit depth                   : 24 bits
    Compression mode            : Lossy
    Stream size                 : 1.12 GiB (13%)
    Language                    : English
    Default                     : Yes
    Forced                      : No
    
    Text #1
    ID                          : 3
    Format                      : ASS
    Codec ID                    : S_TEXT/ASS
    Codec ID/Info               : Advanced Sub Station Alpha
    Compression mode            : Lossless
    Language                    : English
    Default                     : Yes
    Forced                      : No
    
    Text #2
    ID                          : 4
    Format                      : ASS
    Codec ID                    : S_TEXT/ASS
    Codec ID/Info               : Advanced Sub Station Alpha
    Compression mode            : Lossless
    Language                    : Bulgarian
    Default                     : No
    Forced                      : No
    
    Text #3
    ID                          : 5
    Format                      : ASS
    Codec ID                    : S_TEXT/ASS
    Codec ID/Info               : Advanced Sub Station Alpha
    Compression mode            : Lossless
    Language                    : Spanish
    Default                     : No
    Forced                      : No
    
    Text #4
    ID                          : 6
    Format                      : ASS
    Codec ID                    : S_TEXT/ASS
    Codec ID/Info               : Advanced Sub Station Alpha
    Compression mode            : Lossless
    Language                    : Portuguese
    Default                     : No
    Forced                      : No
    
    Text #5
    ID                          : 7
    Format                      : ASS
    Codec ID                    : S_TEXT/ASS
    Codec ID/Info               : Advanced Sub Station Alpha
    Compression mode            : Lossless
    Language                    : Danish
    Default                     : No
    Forced                      : No
    
    Text #6
    ID                          : 8
    Format                      : ASS
    Codec ID                    : S_TEXT/ASS
    Codec ID/Info               : Advanced Sub Station Alpha
    Compression mode            : Lossless
    Language                    : Hungarian
    Default                     : No
    Forced                      : No
    
    Text #7
    ID                          : 9
    Format                      : ASS
    Codec ID                    : S_TEXT/ASS
    Codec ID/Info               : Advanced Sub Station Alpha
    Compression mode            : Lossless
    Language                    : Polish
    Default                     : No
    Forced                      : No
    
    Text #8
    ID                          : 10
    Format                      : ASS
    Codec ID                    : S_TEXT/ASS
    Codec ID/Info               : Advanced Sub Station Alpha
    Compression mode            : Lossless
    Language                    : Czech
    Default                     : No
    Forced                      : No
    
    Text #9
    ID                          : 11
    Format                      : ASS
    Codec ID                    : S_TEXT/ASS
    Codec ID/Info               : Advanced Sub Station Alpha
    Compression mode            : Lossless
    Language                    : Romanian
    Default                     : No
    Forced                      : No
    Download - Mirror 1:
    Download - Mirror 2:
     
  2. Loading...


Share This Page