Google Drive Jakobs.Wife.2021.1080p.WEB-DL.DD5.1.H264-CMRG

Discussion in 'Web-DL / Webrip | 1080p' started by DDLbase, Apr 17, 2021.

  1. DDLbase

    DDLbase Administrator Staff Member

    [​IMG]

    Rating: 5.7/10 based on 144 user ratings

    Genre: Horror

    Anne, married to a small-town Minister, feels her life has been shrinking over the past 30 years. Encountering “The Master” brings her a new sense of power and an appetite to live bolder. However, the change comes with a heavy body count.

    [​IMG]
    Code:
    General
    Unique ID                   : 254220161066386192871460376920519638941 (0xBF4105A625EEB02FB18144CF09987F9D)
    Complete name               : Jakobs.Wife.2021.1080p.WEB-DL.DD5.1.H264-CMRG.mkv
    Format                      : Matroska
    Format version              : Version 4
    File size                   : 3.48 GiB
    Duration                    : 1 h 38 min
    Overall bit rate            : 5 063 kb/s
    Movie name                  : Jakobs.Wife.2021.CMRG
    Encoded date                : UTC 2021-04-16 04:04:19
    Writing application         : mkvmerge v11.0.0 ('Alive') 64bit
    Writing library             : libebml v1.3.4 + libmatroska v1.4.5
    
    Video
    ID                          : 1
    Format                      : AVC
    Format/Info                 : Advanced Video Codec
    Format profile              : [email protected]
    Format settings             : CABAC / 4 Ref Frames
    Format settings, CABAC      : Yes
    Format settings, Reference  : 4 frames
    Codec ID                    : V_MPEG4/ISO/AVC
    Duration                    : 1 h 38 min
    Bit rate                    : 4 677 kb/s
    Width                       : 1 920 pixels
    Height                      : 956 pixels
    Display aspect ratio        : 2.008
    Frame rate mode             : Constant
    Frame rate                  : 23.976 (24000/1001) FPS
    Color space                 : YUV
    Chroma subsampling          : 4:2:0
    Bit depth                   : 8 bits
    Scan type                   : Progressive
    Bits/(Pixel*Frame)          : 0.106
    Stream size                 : 3.21 GiB (92%)
    Language                    : English
    Default                     : Yes
    Forced                      : No
    Color range                 : Limited
    Color primaries             : BT.709
    Transfer characteristics    : BT.709
    Matrix coefficients         : BT.709
    
    Audio
    ID                          : 2
    Format                      : AC-3
    Format/Info                 : Audio Coding 3
    Commercial name             : Dolby Digital
    Codec ID                    : A_AC3
    Duration                    : 1 h 38 min
    Bit rate mode               : Constant
    Bit rate                    : 384 kb/s
    Channel(s)                  : 6 channels
    Channel layout              : L R C LFE Ls Rs
    Sampling rate               : 48.0 kHz
    Frame rate                  : 31.250 FPS (1536 SPF)
    Compression mode            : Lossy
    Delay relative to video     : -42 ms
    Stream size                 : 270 MiB (8%)
    Language                    : English
    Service kind                : Complete Main
    Default                     : Yes
    Forced                      : No
    
    Menu
    00:00:00.000                : en:1
    00:10:46.521                : en:2
    00:20:49.457                : en:3
    00:30:02.718                : en:4
    00:40:49.865                : en:5
    00:50:09.216                : en:6
    01:04:11.766                : en:7
    01:13:53.222                : en:8
    01:21:47.362                : en:9
    01:34:09.771                : en:10
    Download - Mirror 1:
    Download - Mirror 2:
    Download - Mirror 3:
     
  2. Loading...


Share This Page