Google Drive Jarhead.2005.1080p.BluRay.DTS.x264-SbR

Discussion in 'BDRip | 720p/1080p' started by DDLbase, Mar 31, 2021.

  1. DDLbase

    DDLbase Administrator Staff Member

    [​IMG]

    Rating: 7.0/10 based on 176,545 user ratings

    Genres: Action, Biography, Drama, War

    A psychological study of operations desert shield and desert storm during the gulf war; through the eyes of a U.S marine sniper who struggles to cope with the possibility his girlfriend may be cheating on him back home.

    [​IMG]
    Code:
    General
    Unique ID                   : 231948687153779378884256587218279580136 (0xAE7FB13501DDCED186436AD94005C1E8)
    Complete name               : Jarhead.2005.1080p.BluRay.DTS.x264-SbR.mkv
    Format                      : Matroska
    Format version              : Version 4
    File size                   : 13.9 GiB
    Duration                    : 2 h 2 min
    Overall bit rate            : 16.2 Mb/s
    Movie name                  : Jarhead (2005) - Release for HDBITS by SbR
    Encoded date                : UTC 2013-08-23 01:51:51
    Writing application         : mkvmerge v6.2.0 ('Promised Land') built on Apr 28 2013 12:22:01
    Writing library             : libebml v1.3.0 + libmatroska v1.4.0
    Cover                       : Yes
    Attachments                 : cover.jpg / xlog.txt
    
    Video
    ID                          : 1
    Format                      : AVC
    Format/Info                 : Advanced Video Codec
    Format profile              : [email protected]
    Format settings             : CABAC / 5 Ref Frames
    Format settings, CABAC      : Yes
    Format settings, Reference  : 5 frames
    Codec ID                    : V_MPEG4/ISO/AVC
    Duration                    : 2 h 2 min
    Bit rate                    : 14.0 Mb/s
    Width                       : 1 920 pixels
    Height                      : 816 pixels
    Display aspect ratio        : 2.35:1
    Frame rate mode             : Constant
    Frame rate                  : 23.976 (24000/1001) FPS
    Color space                 : YUV
    Chroma subsampling          : 4:2:0
    Bit depth                   : 8 bits
    Scan type                   : Progressive
    Bits/(Pixel*Frame)          : 0.372
    Stream size                 : 12.0 GiB (86%)
    Title                       : Release for HDBITS
    Writing library             : x264 core 135 r2345kMod f0c1c53
    Encoding settings           : cabac=1 / ref=5 / deblock=1:-2:-2 / analyse=0x3:0x113 / me=umh / subme=11 / psy=1 / fade_compensate=0.00 / psy_rd=1.00:0.00 / mixed_ref=1 / me_range=48 / chroma_me=1 / trellis=2 / 8x8dct=1 / cqm=0 / deadzone=21,11 / fast_pskip=1 / chroma_qp_offset=-2 / threads=12 / lookahead_threads=3 / sliced_threads=0 / nr=0 / decimate=1 / interlaced=0 / bluray_compat=0 / constrained_intra=0 / bframes=10 / b_pyramid=2 / b_adapt=2 / b_bias=0 / direct=3 / weightb=1 / open_gop=0 / weightp=2 / keyint=250 / keyint_min=23 / scenecut=40 / intra_refresh=0 / rc_lookahead=60 / rc=crf / mbtree=0 / crf=17.0000 / qcomp=0.60 / qpmin=0 / qpmax=69 / qpstep=4 / vbv_maxrate=62500 / vbv_bufsize=78125 / crf_max=0.0 / nal_hrd=none / ip_ratio=1.40 / pb_ratio=1.30 / aq=1:0.70
    Language                    : English
    Default                     : Yes
    Forced                      : No
    Color range                 : Limited
    Color primaries             : BT.709
    Transfer characteristics    : BT.709
    Matrix coefficients         : BT.709
    
    Audio #1
    ID                          : 2
    Format                      : DTS
    Format/Info                 : Digital Theater Systems
    Codec ID                    : A_DTS
    Duration                    : 2 h 2 min
    Bit rate mode               : Constant
    Bit rate                    : 1 509 kb/s
    Channel(s)                  : 6 channels
    Channel layout              : C L R Ls Rs LFE
    Sampling rate               : 48.0 kHz
    Frame rate                  : 93.750 FPS (512 SPF)
    Bit depth                   : 24 bits
    Compression mode            : Lossy
    Stream size                 : 1.29 GiB (9%)
    Language                    : English
    Default                     : Yes
    Forced                      : No
    
    Audio #2
    ID                          : 3
    Format                      : AC-3
    Format/Info                 : Audio Coding 3
    Commercial name             : Dolby Digital
    Codec ID                    : A_AC3
    Duration                    : 2 h 2 min
    Bit rate mode               : Constant
    Bit rate                    : 192 kb/s
    Channel(s)                  : 2 channels
    Channel layout              : L R
    Sampling rate               : 48.0 kHz
    Frame rate                  : 31.250 FPS (1536 SPF)
    Compression mode            : Lossy
    Stream size                 : 169 MiB (1%)
    Title                       : Feature Commentary with Director Sam Mendes
    Language                    : English
    Service kind                : Complete Main
    Default                     : No
    Forced                      : No
    
    Audio #3
    ID                          : 4
    Format                      : AC-3
    Format/Info                 : Audio Coding 3
    Commercial name             : Dolby Digital
    Codec ID                    : A_AC3
    Duration                    : 2 h 2 min
    Bit rate mode               : Constant
    Bit rate                    : 192 kb/s
    Channel(s)                  : 2 channels
    Channel layout              : L R
    Sampling rate               : 48.0 kHz
    Frame rate                  : 31.250 FPS (1536 SPF)
    Compression mode            : Lossy
    Stream size                 : 169 MiB (1%)
    Title                       : Feature Commentary with Screenwriter William Broyles Jr. & Author Anthony Swofford
    Language                    : English
    Service kind                : Complete Main
    Default                     : No
    Forced                      : No
    
    Text #1
    ID                          : 5
    Format                      : UTF-8
    Codec ID                    : S_TEXT/UTF8
    Codec ID/Info               : UTF-8 Plain Text
    Language                    : English
    Default                     : No
    Forced                      : No
    
    Text #2
    ID                          : 6
    Format                      : UTF-8
    Codec ID                    : S_TEXT/UTF8
    Codec ID/Info               : UTF-8 Plain Text
    Language                    : Russian
    Default                     : No
    Forced                      : No
    
    Menu
    00:00:00.000                : en:Fresh Meat
    00:06:29.514                : en:Do You Have What It Takes?
    00:12:33.878                : en:Getting the Fear Out
    00:15:49.323                : en:Scout Sniper
    00:17:35.596                : en:Operation Desert Shield
    00:24:49.321                : en:Crude Politics
    00:32:05.006                : en:Freedom of Speech
    00:37:57.608                : en:A Small Demonstration
    00:42:42.518                : en:Messages From Home
    00:53:09.227                : en:No Standard Solution
    00:57:43.877                : en:Happy Holidays
    01:03:46.823                : en:First Contact
    01:09:27.496                : en:Operation Desert Storm
    01:17:51.041                : en:Commence Combat
    01:22:52.384                : en:Hell of a Day
    01:28:25.258                : en:I Love This Job
    01:36:19.273                : en:Taking Orders
    01:43:59.650                : en:My War
    01:49:13.838                : en:Welcome Home
    01:53:52.033                : en:End Titles
    Download - Mirror 1:
    Download - Mirror 2:
     
  2. Loading...


Share This Page