Google Drive Jasper.Mall.2020.1080p.BluRay.x264.DTS-HD.MA.5.1-FGT

Discussion in 'BDRip | 720p/1080p' started by DDLbase, Jul 6, 2020.

  1. DDLbase

    DDLbase Administrator Staff Member

    [​IMG]

    Rating: 7.6/10 based on 56 user ratings

    Genre: Documentary

    A year in the life of a dying shopping mall.

    [​IMG]
    Code:
    General
    Unique ID                   : 186295673245771302277446866438678237547 (0x8C273DD6F777CB9515C91F677669D16B)
    Complete name               : Jasper.Mall.2020.1080p.BluRay.x264.DTS-HD.MA.5.1-FGT.mkv
    Format                      : Matroska
    Format version              : Version 4
    File size                   : 8.71 GiB
    Duration                    : 1 h 24 min
    Overall bit rate mode       : Variable
    Overall bit rate            : 14.8 Mb/s
    Movie name                  : Jasper.Mall.2020.1080p.BluRay.x264.DTS-HD.MA.5.1-FGT
    Encoded date                : UTC 2020-07-03 12:33:09
    Writing application         : mkvmerge v47.0.0 ('Black Flag') 64-bit
    Writing library             : libebml v1.3.10 + libmatroska v1.5.2
    Cover                       : Yes
    Attachments                 : small_cover.jpg / small_cover_land.jpg / cover.jpg / cover_land.jpg
    
    Video
    ID                          : 1
    Format                      : AVC
    Format/Info                 : Advanced Video Codec
    Format profile              : [email protected]
    Format settings             : CABAC / 4 Ref Frames
    Format settings, CABAC      : Yes
    Format settings, Reference  : 4 frames
    Codec ID                    : V_MPEG4/ISO/AVC
    Duration                    : 1 h 24 min
    Bit rate                    : 11.5 Mb/s
    Width                       : 1 920 pixels
    Height                      : 1 080 pixels
    Display aspect ratio        : 16:9
    Frame rate mode             : Constant
    Frame rate                  : 23.976 (24000/1001) FPS
    Color space                 : YUV
    Chroma subsampling          : 4:2:0
    Bit depth                   : 8 bits
    Scan type                   : Progressive
    Bits/(Pixel*Frame)          : 0.231
    Stream size                 : 6.75 GiB (78%)
    Title                       : Jasper.Mall.2020.1080p.BluRay.x264.DTS-HD.MA.5.1-FGT
    Writing library             : x264 core 148 r2748 97eaef2
    Encoding settings           : cabac=1 / ref=4 / deblock=1:-2:-2 / analyse=0x3:0x113 / me=umh / subme=9 / psy=1 / psy_rd=1.00:0.15 / mixed_ref=1 / me_range=16 / chroma_me=1 / trellis=2 / 8x8dct=1 / cqm=0 / deadzone=21,11 / fast_pskip=1 / chroma_qp_offset=-3 / threads=72 / lookahead_threads=3 / sliced_threads=0 / nr=0 / decimate=1 / interlaced=0 / bluray_compat=0 / constrained_intra=0 / bframes=3 / b_pyramid=2 / b_adapt=1 / b_bias=0 / direct=3 / weightb=1 / open_gop=0 / weightp=2 / keyint=250 / keyint_min=25 / scenecut=40 / intra_refresh=0 / rc_lookahead=50 / rc=2pass / mbtree=1 / bitrate=11500 / ratetol=1.0 / qcomp=0.60 / qpmin=0 / qpmax=69 / qpstep=4 / cplxblur=20.0 / qblur=0.5 / vbv_maxrate=31250 / vbv_bufsize=31250 / nal_hrd=none / filler=0 / ip_ratio=1.40 / aq=1:1.00
    Language                    : English
    Default                     : Yes
    Forced                      : No
    
    Audio
    ID                          : 2
    Format                      : DTS XLL
    Format/Info                 : Digital Theater Systems
    Commercial name             : DTS-HD Master Audio
    Codec ID                    : A_DTS
    Duration                    : 1 h 24 min
    Bit rate mode               : Variable
    Bit rate                    : 3 314 kb/s
    Channel(s)                  : 6 channels
    Channel layout              : C L R Ls Rs LFE
    Sampling rate               : 48.0 kHz
    Frame rate                  : 93.750 FPS (512 SPF)
    Bit depth                   : 24 bits
    Compression mode            : Lossless
    Stream size                 : 1.95 GiB (22%)
    Title                       : Jasper.Mall.2020.1080p.BluRay.x264.DTS-HD.MA.5.1-FGT
    Language                    : English
    Default                     : Yes
    Forced                      : No
    
    Text #1
    ID                          : 3
    Format                      : UTF-8
    Codec ID                    : S_TEXT/UTF8
    Codec ID/Info               : UTF-8 Plain Text
    Duration                    : 1 h 23 min
    Bit rate                    : 65 b/s
    Count of elements           : 1155
    Stream size                 : 40.3 KiB (0%)
    Title                       : English-SRT
    Language                    : English
    Default                     : Yes
    Forced                      : No
    
    Text #2
    ID                          : 4
    Format                      : PGS
    Muxing mode                 : zlib
    Codec ID                    : S_HDMV/PGS
    Codec ID/Info               : Picture based subtitle format used on BDs/HD-DVDs
    Duration                    : 1 h 23 min
    Bit rate                    : 38.7 kb/s
    Count of elements           : 2418
    Stream size                 : 23.2 MiB (0%)
    Title                       : English-PGS
    Language                    : English
    Default                     : No
    Forced                      : No
    
    Menu
    00:00:00.000                : en:Chapter 1
    00:11:10.002                : en:Chapter 2
    00:18:08.545                : en:Chapter 3
    00:29:52.582                : en:Chapter 4
    00:38:39.775                : en:Chapter 5
    00:45:35.315                : en:Chapter 6
    00:53:46.556                : en:Chapter 7
    01:06:06.128                : en:Chapter 8
    01:22:05.211                : en:End Credits
    Download:
     
  2. Loading...


Share This Page