Google Drive Jesus.Revolution.2023.REPACK.1080p.AMZN.WEB-DL.DDP5.1.Atmos.H.264-FLUX

Discussion in 'Web-DL / Webrip | 1080p' started by DDLbase, Apr 11, 2023.

  1. DDLbase

    DDLbase Administrator Staff Member

    [​IMG]

    Rating: 7.7/10 based on ‎4,966 user ratings

    Genre: Drama

    The true story of a national spiritual awakening in the early 1970s and its origins within a community of teenage hippies in Southern California.

    [​IMG]
    Code:
    General
    Unique ID                   : 40372021784841890805383577439521857308 (0x1E5F5E5A69A5B161B55FFEE72141DF1C)
    Complete name               : Jesus.Revolution.2023.REPACK.1080p.AMZN.WEB-DL.DDP5.1.Atmos.H.264-FLUX.mkv
    Format                      : Matroska
    Format version              : Version 4
    File size                   : 8.25 GiB
    Duration                    : 1 h 59 min
    Overall bit rate            : 9 855 kb/s
    Writing application         : mkvmerge v75.0.0 ('Goliath') 64-bit
    Writing library             : libebml v1.4.4 + libmatroska v1.7.1
    
    Video
    ID                          : 1
    Format                      : AVC
    Format/Info                 : Advanced Video Codec
    Format profile              : High@L4
    Format settings             : CABAC / 4 Ref Frames
    Format settings, CABAC      : Yes
    Format settings, Reference  : 4 frames
    Codec ID                    : V_MPEG4/ISO/AVC
    Duration                    : 1 h 59 min
    Bit rate mode               : Constant
    Bit rate                    : 9 084 kb/s
    Nominal bit rate            : 10 000 kb/s
    Width                       : 1 920 pixels
    Height                      : 800 pixels
    Display aspect ratio        : 2.40:1
    Frame rate mode             : Constant
    Frame rate                  : 23.976 (24000/1001) FPS
    Color space                 : YUV
    Chroma subsampling          : 4:2:0
    Bit depth                   : 8 bits
    Scan type                   : Progressive
    Bits/(Pixel*Frame)          : 0.247
    Stream size                 : 7.61 GiB (92%)
    Language                    : English
    Default                     : Yes
    Forced                      : No
    Color range                 : Limited
    Color primaries             : BT.709
    Transfer characteristics    : BT.709
    Matrix coefficients         : BT.709
    
    Audio
    ID                          : 2
    Format                      : E-AC-3 JOC
    Format/Info                 : Enhanced AC-3 with Joint Object Coding
    Commercial name             : Dolby Digital Plus with Dolby Atmos
    Codec ID                    : A_EAC3
    Duration                    : 1 h 59 min
    Bit rate mode               : Constant
    Bit rate                    : 768 kb/s
    Channel(s)                  : 6 channels
    Channel layout              : L R C LFE Ls Rs
    Sampling rate               : 48.0 kHz
    Frame rate                  : 31.250 FPS (1536 SPF)
    Compression mode            : Lossy
    Delay relative to video     : 21 ms
    Stream size                 : 659 MiB (8%)
    Language                    : English
    Service kind                : Complete Main
    Default                     : Yes
    Forced                      : No
    Complexity index            : 16
    Number of dynamic objects   : 15
    Bed channel count           : 1 channel
    Bed channel configuration   : LFE
    
    Text #1
    ID                          : 3
    Format                      : UTF-8
    Codec ID                    : S_TEXT/UTF8
    Codec ID/Info               : UTF-8 Plain Text
    Duration                    : 1 h 55 min
    Bit rate                    : 69 b/s
    Frame rate                  : 0.289 FPS
    Count of elements           : 2007
    Stream size                 : 58.8 KiB (0%)
    Language                    : English
    Default                     : No
    Forced                      : No
    
    Text #2
    ID                          : 4
    Format                      : UTF-8
    Codec ID                    : S_TEXT/UTF8
    Codec ID/Info               : UTF-8 Plain Text
    Duration                    : 1 h 57 min
    Bit rate                    : 77 b/s
    Frame rate                  : 0.319 FPS
    Count of elements           : 2242
    Stream size                 : 66.1 KiB (0%)
    Title                       : SDH
    Language                    : English
    Default                     : No
    Forced                      : No
    
    Menu
    00:00:00.021                : en:Chapter 01
    00:06:00.381                : en:Chapter 02
    00:17:36.619                : en:Chapter 03
    00:29:39.008                : en:Chapter 04
    00:37:49.165                : en:Chapter 05
    00:49:21.649                : en:Chapter 06
    00:57:59.291                : en:Chapter 07
    01:09:37.114                : en:Chapter 08
    01:19:36.547                : en:Chapter 09
    01:31:18.999                : en:Chapter 10
    01:42:09.191                : en:Chapter 11
    01:54:01.737                : en:Chapter 12
    Download - Mirror 1:
    Download - Mirror 2:
    Download - Mirror 3:
     
  2. Loading...


Share This Page