Google Drive Jobs.2013.1080p.BluRay.x264-BLOW

Discussion in 'BDRip | 720p/1080p' started by DDLbase, Apr 1, 2021.

  1. DDLbase

    DDLbase Administrator Staff Member

    [​IMG]

    Rating: 6.0/10 based on 94,123 user ratings

    Genres: Biography, Drama

    The story of Steve Jobs‘ ascension from college dropout into one of the most revered creative entrepreneurs of the 20th century.

    [​IMG]
    Code:
    General
    Unique ID                   : 211554334912660919259493286811648382853 (0x9F27E20248373A49B672DDE37B3BD785)
    Complete name               : Jobs.2013.1080p.BluRay.x264-BLOW.mkv
    Format                      : Matroska
    Format version              : Version 4
    File size                   : 8.74 GiB
    Duration                    : 2 h 8 min
    Overall bit rate            : 9 754 kb/s
    Encoded date                : UTC 2013-11-14 08:09:48
    Writing application         : mkvmerge v6.5.0 ('Isn't she lovely') built on Oct 20 2013 12:50:05
    Writing library             : libebml v1.3.0 + libmatroska v1.4.1
    
    Video
    ID                          : 1
    Format                      : AVC
    Format/Info                 : Advanced Video Codec
    Format profile              : [email protected]
    Format settings             : CABAC / 5 Ref Frames
    Format settings, CABAC      : Yes
    Format settings, Reference  : 5 frames
    Codec ID                    : V_MPEG4/ISO/AVC
    Duration                    : 2 h 8 min
    Bit rate                    : 8 256 kb/s
    Width                       : 1 920 pixels
    Height                      : 816 pixels
    Display aspect ratio        : 2.35:1
    Frame rate mode             : Constant
    Frame rate                  : 23.976 (24000/1001) FPS
    Color space                 : YUV
    Chroma subsampling          : 4:2:0
    Bit depth                   : 8 bits
    Scan type                   : Progressive
    Bits/(Pixel*Frame)          : 0.220
    Stream size                 : 7.21 GiB (83%)
    Writing library             : x264 core 140 r2377 1ca7bb9
    Encoding settings           : cabac=1 / ref=5 / deblock=1:0:0 / analyse=0x3:0x133 / me=umh / subme=7 / psy=1 / psy_rd=1.00:0.00 / mixed_ref=1 / me_range=16 / chroma_me=1 / trellis=1 / 8x8dct=1 / cqm=0 / deadzone=21,11 / fast_pskip=0 / chroma_qp_offset=-2 / threads=8 / lookahead_threads=1 / sliced_threads=0 / nr=0 / decimate=1 / interlaced=0 / bluray_compat=0 / constrained_intra=0 / bframes=3 / b_pyramid=2 / b_adapt=2 / b_bias=0 / direct=3 / weightb=1 / open_gop=0 / weightp=2 / keyint=250 / keyint_min=23 / scenecut=40 / intra_refresh=0 / rc_lookahead=50 / rc=2pass / mbtree=1 / bitrate=8256 / ratetol=1.0 / qcomp=0.60 / qpmin=0 / qpmax=69 / qpstep=4 / cplxblur=20.0 / qblur=0.5 / ip_ratio=1.40 / aq=1:1.00
    Language                    : English
    Default                     : Yes
    Forced                      : No
    
    Audio
    ID                          : 2
    Format                      : DTS
    Format/Info                 : Digital Theater Systems
    Codec ID                    : A_DTS
    Duration                    : 2 h 8 min
    Bit rate mode               : Constant
    Bit rate                    : 1 509 kb/s
    Channel(s)                  : 6 channels
    Channel layout              : C L R Ls Rs LFE
    Sampling rate               : 48.0 kHz
    Frame rate                  : 93.750 FPS (512 SPF)
    Bit depth                   : 24 bits
    Compression mode            : Lossy
    Stream size                 : 1.35 GiB (15%)
    Language                    : English
    Default                     : Yes
    Forced                      : No
    
    Text
    ID                          : 3
    Format                      : UTF-8
    Codec ID                    : S_TEXT/UTF8
    Codec ID/Info               : UTF-8 Plain Text
    Language                    : English
    Default                     : Yes
    Forced                      : No
    
    Menu
    00:00:00.000                : en:00:00:00.000
    00:04:12.752                : en:00:04:12.752
    00:12:03.306                : en:00:12:03.306
    00:19:43.432                : en:00:19:43.432
    00:26:16.867                : en:00:26:16.867
    00:33:06.067                : en:00:33:06.067
    00:40:17.040                : en:00:40:17.040
    00:48:22.650                : en:00:48:22.650
    00:55:24.780                : en:00:55:24.780
    00:59:28.148                : en:00:59:28.148
    01:05:36.808                : en:01:05:36.808
    01:13:55.264                : en:01:13:55.264
    01:21:31.428                : en:01:21:31.428
    01:28:51.201                : en:01:28:51.201
    01:33:15.590                : en:01:33:15.590
    01:39:02.395                : en:01:39:02.395
    01:43:18.609                : en:01:43:18.609
    01:48:09.066                : en:01:48:09.066
    01:54:46.171                : en:01:54:46.171
    02:00:29.013                : en:02:00:29.013
    Download - Mirror 1:
    Download - Mirror 2:
     
  2. Loading...


Share This Page