Google Drive Juice.1992.1080p.BluRay.REMUX.AVC.DTS-HD.MA.5.1-EPSiLON

Discussion in 'BD REMUX | 1080p' started by DDLbase, Jul 25, 2020.

  1. DDLbase

    DDLbase Administrator Staff Member

    [​IMG]

    Rating: 7.1/10 based on 23,245 user ratings

    Genres: Action, Crime, Drama

    Four inner-city teenagers get caught up in the pursuit of power and happiness, which they refer to as "the juice".

    [​IMG]
    Code:
    General
    Complete name               : Juice.1992.1080p.BluRay.REMUX.AVC.DTS-HD.MA.5.1-EPSiLON.mkv
    Format                      : Matroska
    Format version              : Version 4
    File size                   : 24.4 GiB
    Duration                    : 1 h 34 min
    Overall bit rate mode       : Variable
    Overall bit rate            : 36.8 Mb/s
    Encoded date                : UTC 2017-10-11 08:56:42
    Writing application         : mkvmerge v16.0.0 ('Protest') 64-bit
    Writing library             : libebml v1.3.5 + libmatroska v1.4.8
    
    Video
    ID                          : 1
    Format                      : AVC
    Format/Info                 : Advanced Video Codec
    Format profile              : [email protected]
    Format settings             : CABAC / 4 Ref Frames
    Format settings, CABAC      : Yes
    Format settings, Reference  : 4 frames
    Codec ID                    : V_MPEG4/ISO/AVC
    Duration                    : 1 h 34 min
    Bit rate mode               : Variable
    Bit rate                    : 32.7 Mb/s
    Maximum bit rate            : 35.0 Mb/s
    Width                       : 1 920 pixels
    Height                      : 1 080 pixels
    Display aspect ratio        : 16:9
    Frame rate mode             : Constant
    Frame rate                  : 23.976 (24000/1001) FPS
    Color space                 : YUV
    Chroma subsampling          : 4:2:0
    Bit depth                   : 8 bits
    Scan type                   : Progressive
    Bits/(Pixel*Frame)          : 0.657
    Stream size                 : 21.6 GiB (89%)
    Title                       : MPEG-4 AVC Video / 32967 kbps / 1080p / 23.976 fps / 16:9 / High Profile 4.1
    Language                    : English
    Default                     : Yes
    Forced                      : No
    
    Audio #1
    ID                          : 2
    Format                      : DTS XLL
    Format/Info                 : Digital Theater Systems
    Commercial name             : DTS-HD Master Audio
    Codec ID                    : A_DTS
    Duration                    : 1 h 34 min
    Bit rate mode               : Variable
    Bit rate                    : 3 806 kb/s
    Channel(s)                  : 6 channels
    Channel layout              : C L R Ls Rs LFE
    Sampling rate               : 48.0 kHz
    Frame rate                  : 93.750 FPS (512 SPF)
    Bit depth                   : 24 bits
    Compression mode            : Lossless
    Stream size                 : 2.52 GiB (10%)
    Title                       : DTS-HD Master Audio / 5.1 / 48 kHz / 3806 kbps / 24-bit
    Language                    : English
    Default                     : Yes
    Forced                      : No
    
    Audio #2
    ID                          : 3
    Format                      : AC-3
    Format/Info                 : Audio Coding 3
    Commercial name             : Dolby Digital
    Codec ID                    : A_AC3
    Duration                    : 1 h 34 min
    Bit rate mode               : Constant
    Bit rate                    : 224 kb/s
    Channel(s)                  : 2 channels
    Channel layout              : L R
    Sampling rate               : 48.0 kHz
    Frame rate                  : 31.250 FPS (1536 SPF)
    Compression mode            : Lossy
    Stream size                 : 152 MiB (1%)
    Title                       : Commentary by director Ernest R. Dickerson
    Language                    : English
    Service kind                : Complete Main
    Default                     : No
    Forced                      : No
    
    Text #1
    ID                          : 4
    Format                      : PGS
    Codec ID                    : S_HDMV/PGS
    Codec ID/Info               : Picture based subtitle format used on BDs/HD-DVDs
    Duration                    : 1 h 28 min
    Bit rate                    : 38.8 kb/s
    Count of elements           : 2248
    Stream size                 : 24.7 MiB (0%)
    Language                    : English
    Default                     : No
    Forced                      : No
    
    Text #2
    ID                          : 5
    Format                      : PGS
    Codec ID                    : S_HDMV/PGS
    Codec ID/Info               : Picture based subtitle format used on BDs/HD-DVDs
    Duration                    : 1 h 31 min
    Bit rate                    : 41.9 kb/s
    Count of elements           : 2532
    Stream size                 : 27.4 MiB (0%)
    Title                       : SDH
    Language                    : English
    Default                     : No
    Forced                      : No
    
    Text #3
    ID                          : 6
    Format                      : PGS
    Codec ID                    : S_HDMV/PGS
    Codec ID/Info               : Picture based subtitle format used on BDs/HD-DVDs
    Duration                    : 1 h 28 min
    Bit rate                    : 32.5 kb/s
    Count of elements           : 2262
    Stream size                 : 20.6 MiB (0%)
    Language                    : French
    Default                     : No
    Forced                      : No
    
    Text #4
    ID                          : 7
    Format                      : PGS
    Codec ID                    : S_HDMV/PGS
    Codec ID/Info               : Picture based subtitle format used on BDs/HD-DVDs
    Duration                    : 1 h 28 min
    Bit rate                    : 31.7 kb/s
    Count of elements           : 2268
    Stream size                 : 20.2 MiB (0%)
    Title                       : Latin American
    Language                    : Spanish
    Default                     : No
    Forced                      : No
    
    Menu
    00:00:00.000                : en:Main Titles
    00:02:40.368                : en:Wrecking Crew
    00:20:43.325                : en:Blizzard
    00:29:43.865                : en:Yolanda
    00:33:41.269                : en:Gee Q
    00:41:07.798                : en:Mixxmaster Massacre
    00:46:46.053                : en:Old Man Quiles
    00:49:22.459                : en:"If I go down, you go down"
    00:57:53.094                : en:Gone Crazy
    01:13:07.633                : en:The Frame
    01:21:50.697                : en:Juice
    Download:
     
  2. Loading...


Share This Page