Google Drive Kandahar.2023.2160p.WEB-DL.DD5.1.HDR.H.265-BEY0NDER

Discussion in 'Web-DL / Webrip | 4K' started by DDLbase, Jun 15, 2023.

  1. DDLbase

    DDLbase Administrator Staff Member

    [​IMG]

    Rating: 6.2/10 based on 2,236 user ratings

    Genres: Action, Thriller

    A CIA operative and his translator flee from special forces in Afghanistan after exposing a covert mission.

    [​IMG]
    Code:
    General
    Unique ID                   : 1926654709711938973832150441225965456 (0x1730F6940EDB288B4D28E93F5494F90)
    Complete name               : Kandahar.2023.2160p.WEB-DL.DD5.1.HDR.H.265-BEY0NDER.mkv
    Format                      : Matroska
    Format version              : Version 4
    File size                   : 20.8 GiB
    Duration                    : 1 h 59 min
    Overall bit rate            : 24.8 Mb/s
    Writing application         : mkvmerge v76.0 ('Celebration') 64-bit
    Writing library             : libebml v1.4.4 + libmatroska v1.7.1
    
    Video
    ID                          : 1
    Format                      : HEVC
    Format/Info                 : High Efficiency Video Coding
    Format profile              : Main 10@L5@High
    HDR format                  : SMPTE ST 2086, HDR10 compatible
    Codec ID                    : V_MPEGH/ISO/HEVC
    Duration                    : 1 h 59 min
    Bit rate                    : 24.4 Mb/s
    Width                       : 3 840 pixels
    Height                      : 2 160 pixels
    Display aspect ratio        : 16:9
    Frame rate mode             : Constant
    Frame rate                  : 23.976 (24000/1001) FPS
    Color space                 : YUV
    Chroma subsampling          : 4:2:0 (Type 2)
    Bit depth                   : 10 bits
    Bits/(Pixel*Frame)          : 0.123
    Stream size                 : 20.4 GiB (98%)
    Language                    : English
    Default                     : Yes
    Forced                      : No
    Color range                 : Limited
    Color primaries             : BT.2020
    Transfer characteristics    : PQ
    Matrix coefficients         : BT.2020 non-constant
    Mastering display color pri : BT.2020
    Mastering display luminance : min: 0.0050 cd/m2, max: 1000 cd/m2
    Maximum Content Light Level : 429 cd/m2
    Maximum Frame-Average Light : 67 cd/m2
    
    Audio
    ID                          : 2
    Format                      : AC-3
    Format/Info                 : Audio Coding 3
    Commercial name             : Dolby Digital
    Codec ID                    : A_AC3
    Duration                    : 1 h 59 min
    Bit rate mode               : Constant
    Bit rate                    : 384 kb/s
    Channel(s)                  : 6 channels
    Channel layout              : L R C LFE Ls Rs
    Sampling rate               : 48.0 kHz
    Frame rate                  : 31.250 FPS (1536 SPF)
    Compression mode            : Lossy
    Delay relative to video     : 24 ms
    Stream size                 : 329 MiB (2%)
    Language                    : English
    Service kind                : Complete Main
    Default                     : Yes
    Forced                      : No
    
    Text #1
    ID                          : 3
    Format                      : UTF-8
    Codec ID                    : S_TEXT/UTF8
    Codec ID/Info               : UTF-8 Plain Text
    Duration                    : 1 h 39 min
    Bit rate                    : 8 b/s
    Frame rate                  : 0.041 FPS
    Count of elements           : 243
    Stream size                 : 6.46 KiB (0%)
    Title                       : Forced
    Language                    : English
    Default                     : Yes
    Forced                      : Yes
    
    Text #2
    ID                          : 4
    Format                      : UTF-8
    Codec ID                    : S_TEXT/UTF8
    Codec ID/Info               : UTF-8 Plain Text
    Duration                    : 1 h 50 min
    Bit rate                    : 37 b/s
    Frame rate                  : 0.129 FPS
    Count of elements           : 860
    Stream size                 : 30.7 KiB (0%)
    Title                       : Latin American
    Language                    : Spanish
    Default                     : No
    Forced                      : No
    
    Menu
    00:00:00.000                : en:Chapter 01
    00:09:41.415                : en:Chapter 02
    00:13:28.434                : en:Chapter 03
    00:20:13.047                : en:Chapter 04
    00:25:59.602                : en:Chapter 05
    00:32:03.257                : en:Chapter 06
    00:36:28.397                : en:Chapter 07
    00:39:47.388                : en:Chapter 08
    00:45:40.533                : en:Chapter 09
    00:50:22.940                : en:Chapter 10
    00:54:39.655                : en:Chapter 11
    01:02:33.671                : en:Chapter 12
    01:07:01.313                : en:Chapter 13
    01:13:08.264                : en:Chapter 14
    01:20:34.251                : en:Chapter 15
    01:29:55.855                : en:Chapter 16
    01:37:50.162                : en:Chapter 17
    01:41:28.339                : en:Chapter 18
    01:46:18.754                : en:Chapter 19
    01:52:56.277                : en:Chapter 20
    Download - Mirror 1:
    Download - Mirror 2:
    Download - Mirror 3:
     
  2. Loading...


Share This Page