Google Drive Kansas.City.1996.1080p.BluRay.x264-GUACAMOLE

Discussion in 'BDRip | 720p/1080p' started by DDLbase, Sep 14, 2020.

  1. DDLbase

    DDLbase Administrator Staff Member

    [​IMG]

    Rating: 6.4/10 based on 4,228 user ratings

    Genres: Crime, Drama, Music, Thriller

    A pair of kidnappings expose the complex power dynamics within the corrupt and unpredictable workings of 1930s Kansas City.

    [​IMG]
    Code:
    General
    Unique ID                   : 240448461017869803721857321863889463005 (0xB4E4B069E182572B250F7B5950D2A6DD)
    Complete name               : Kansas.City.1996.1080p.BluRay.x264-GUACAMOLE.mkv
    Format                      : Matroska
    Format version              : Version 4
    File size                   : 8.73 GiB
    Duration                    : 1 h 55 min
    Overall bit rate            : 10.8 Mb/s
    Encoded date                : UTC 2019-06-15 16:31:47
    Writing application         : mkvmerge v34.0.0 ('Sight and Seen') 64-bit
    Writing library             : libebml v1.3.7 + libmatroska v1.5.0
    
    Video
    ID                          : 1
    Format                      : AVC
    Format/Info                 : Advanced Video Codec
    Format profile              : [email protected]
    Format settings             : CABAC / 4 Ref Frames
    Format settings, CABAC      : Yes
    Format settings, Reference  : 4 frames
    Codec ID                    : V_MPEG4/ISO/AVC
    Duration                    : 1 h 55 min
    Bit rate                    : 9 294 kb/s
    Width                       : 1 920 pixels
    Height                      : 1 080 pixels
    Display aspect ratio        : 16:9
    Frame rate mode             : Constant
    Frame rate                  : 23.976 (24000/1001) FPS
    Color space                 : YUV
    Chroma subsampling          : 4:2:0
    Bit depth                   : 8 bits
    Scan type                   : Progressive
    Bits/(Pixel*Frame)          : 0.187
    Stream size                 : 7.51 GiB (86%)
    Writing library             : x264 core 157 r2969 d4099dd
    Encoding settings           : cabac=1 / ref=4 / deblock=1:0:0 / analyse=0x3:0x113 / me=umh / subme=8 / psy=1 / psy_rd=1.00:0.00 / mixed_ref=1 / me_range=16 / chroma_me=1 / trellis=2 / 8x8dct=1 / cqm=0 / deadzone=21,11 / fast_pskip=0 / chroma_qp_offset=-2 / threads=24 / lookahead_threads=4 / sliced_threads=0 / nr=0 / decimate=1 / interlaced=0 / bluray_compat=0 / constrained_intra=0 / bframes=3 / b_pyramid=2 / b_adapt=1 / b_bias=0 / direct=1 / weightb=1 / open_gop=0 / weightp=2 / keyint=250 / keyint_min=23 / scenecut=40 / intra_refresh=0 / rc_lookahead=50 / rc=2pass / mbtree=1 / bitrate=9294 / ratetol=1.0 / qcomp=0.60 / qpmin=0 / qpmax=69 / qpstep=4 / cplxblur=20.0 / qblur=0.5 / ip_ratio=1.40 / aq=1:1.00
    Default                     : Yes
    Forced                      : No
    
    Audio
    ID                          : 2
    Format                      : DTS
    Format/Info                 : Digital Theater Systems
    Codec ID                    : A_DTS
    Duration                    : 1 h 55 min
    Bit rate mode               : Constant
    Bit rate                    : 1 509 kb/s
    Channel(s)                  : 6 channels
    Channel layout              : C L R Ls Rs LFE
    Sampling rate               : 48.0 kHz
    Frame rate                  : 93.750 FPS (512 SPF)
    Bit depth                   : 24 bits
    Compression mode            : Lossy
    Stream size                 : 1.22 GiB (14%)
    Language                    : English
    Default                     : No
    Forced                      : No
    
    Menu
    00:00:00.000                : en:00:00:00.000
    00:09:51.549                : en:00:09:51.549
    00:19:47.103                : en:00:19:47.103
    00:29:25.722                : en:00:29:25.722
    00:37:36.129                : en:00:37:36.129
    00:48:31.575                : en:00:48:31.575
    00:57:38.455                : en:00:57:38.455
    01:05:43.606                : en:01:05:43.606
    01:16:48.270                : en:01:16:48.270
    01:25:10.230                : en:01:25:10.230
    01:35:38.107                : en:01:35:38.107
    01:44:53.746                : en:01:44:53.746
    Download:
     
  2. Loading...


Share This Page