Google Drive Kate.and.Leopold.2001.DC.1080p.BluRay.x264-SAiMORNY

Discussion in 'BDRip | 720p/1080p' started by DDLbase, Apr 24, 2021.

  1. DDLbase

    DDLbase Administrator Staff Member

    [​IMG]

    Rating: 6.4/10 based on 79,605 user ratings

    Genres: Comedy, Fantasy, Romance

    An English Duke from 1876 is inadvertedly dragged to modern day New York where he falls for a plucky advertising executive.

    [​IMG]
    Code:
    General
    Unique ID                   : 243460966374567065180019452507496118004 (0xB728E0651FA27557858F40E3173BF6F4)
    Complete name               : Kate.and.Leopold.2001.DC.1080p.BluRay.x264-SAiMORNY.mkv
    Format                      : Matroska
    Format version              : Version 2
    File size                   : 8.74 GiB
    Duration                    : 2 h 3 min
    Overall bit rate            : 10.2 Mb/s
    Encoded date                : UTC 2012-04-04 21:15:30
    Writing application         : mkvmerge v5.1.0 ('And so it goes') built on Nov 28 2011 23:58:28
    Writing library             : libebml v1.2.3 + libmatroska v1.3.0
    
    Video
    ID                          : 1
    Format                      : AVC
    Format/Info                 : Advanced Video Codec
    Format profile              : [email protected]
    Format settings             : CABAC / 4 Ref Frames
    Format settings, CABAC      : Yes
    Format settings, Reference  : 4 frames
    Muxing mode                 : Header stripping
    Codec ID                    : V_MPEG4/ISO/AVC
    Duration                    : 2 h 3 min
    Bit rate                    : 8 667 kb/s
    Width                       : 1 920 pixels
    Height                      : 1 080 pixels
    Display aspect ratio        : 16:9
    Frame rate mode             : Constant
    Frame rate                  : 23.976 (24000/1001) FPS
    Color space                 : YUV
    Chroma subsampling          : 4:2:0
    Bit depth                   : 8 bits
    Scan type                   : Progressive
    Bits/(Pixel*Frame)          : 0.174
    Stream size                 : 7.27 GiB (83%)
    Writing library             : x264 core 122 r2184 5c85e0a
    Encoding settings           : cabac=1 / ref=4 / deblock=1:0:0 / analyse=0x3:0x133 / me=umh / subme=7 / psy=1 / psy_rd=1.00:0.00 / mixed_ref=1 / me_range=16 / chroma_me=1 / trellis=1 / 8x8dct=1 / cqm=0 / deadzone=21,11 / fast_pskip=0 / chroma_qp_offset=-2 / threads=12 / sliced_threads=0 / nr=0 / decimate=1 / interlaced=0 / bluray_compat=0 / constrained_intra=0 / bframes=3 / b_pyramid=2 / b_adapt=1 / b_bias=0 / direct=1 / weightb=1 / open_gop=0 / weightp=2 / keyint=250 / keyint_min=23 / scenecut=40 / intra_refresh=0 / rc_lookahead=40 / rc=2pass / mbtree=1 / bitrate=8667 / ratetol=1.0 / qcomp=0.60 / qpmin=0 / qpmax=69 / qpstep=4 / cplxblur=20.0 / qblur=0.5 / ip_ratio=1.40 / aq=1:1.00
    Language                    : English
    Default                     : Yes
    Forced                      : No
    
    Audio
    ID                          : 2
    Format                      : DTS
    Format/Info                 : Digital Theater Systems
    Muxing mode                 : Header stripping
    Codec ID                    : A_DTS
    Duration                    : 2 h 3 min
    Bit rate mode               : Constant
    Bit rate                    : 1 509 kb/s
    Channel(s)                  : 6 channels
    Channel layout              : C L R Ls Rs LFE
    Sampling rate               : 48.0 kHz
    Frame rate                  : 93.750 FPS (512 SPF)
    Bit depth                   : 24 bits
    Compression mode            : Lossy
    Stream size                 : 1.30 GiB (15%)
    Language                    : English
    Default                     : Yes
    Forced                      : No
    Download - Mirror 1:
    Download - Mirror 2:
     
  2. Loading...

    Similar Threads - Kate Leopold 2001
    1. DDLbase
      Replies:
      0
      Views:
      705
    2. DDLbase
      Replies:
      0
      Views:
      540

Share This Page