Google Drive Keanu.2016.1080p.BluRay.x264-DRONES

Discussion in 'BDRip | 720p/1080p' started by DDLbase, Oct 15, 2020.

  1. DDLbase

    DDLbase Administrator Staff Member

    [​IMG]

    Rating: 6.2/10 based on 45,043 user ratings

    Genres: Action, Comedy, Drama

    When an L.A. drug kingpin’s kitten unexpectedly enters the life of two cousins, they will have to go through gangs, hitmen and drug dealers who claim him in order to get him back.

    [​IMG]
    Code:
    General
    Unique ID                   : 224005092733471631867357970563587709438 (0xA885CFC3A53ED53AAA8F8674DDBD19FE)
    Complete name               : Keanu.2016.1080p.BluRay.x264-DRONES.mkv
    Format                      : Matroska
    Format version              : Version 4
    File size                   : 7.65 GiB
    Duration                    : 1 h 39 min
    Overall bit rate            : 11.0 Mb/s
    Encoded date                : UTC 2016-07-22 12:37:26
    Writing application         : mkvmerge v8.3.0 ('Over the Horizon') 64bit
    Writing library             : libebml v1.3.1 + libmatroska v1.4.2
    
    Video
    ID                          : 1
    Format                      : AVC
    Format/Info                 : Advanced Video Codec
    Format profile              : [email protected]
    Format settings             : CABAC / 5 Ref Frames
    Format settings, CABAC      : Yes
    Format settings, Reference  : 5 frames
    Codec ID                    : V_MPEG4/ISO/AVC
    Duration                    : 1 h 39 min
    Bit rate                    : 9 466 kb/s
    Width                       : 1 920 pixels
    Height                      : 800 pixels
    Display aspect ratio        : 2.40:1
    Frame rate mode             : Constant
    Frame rate                  : 23.976 FPS
    Color space                 : YUV
    Chroma subsampling          : 4:2:0
    Bit depth                   : 8 bits
    Scan type                   : Progressive
    Bits/(Pixel*Frame)          : 0.257
    Stream size                 : 6.60 GiB (86%)
    Writing library             : x264 core 148 r2692 64f4e24
    Encoding settings           : cabac=1 / ref=5 / deblock=1:0:0 / analyse=0x3:0x133 / me=umh / subme=7 / psy=1 / psy_rd=1.00:0.00 / mixed_ref=1 / me_range=16 / chroma_me=1 / trellis=1 / 8x8dct=1 / cqm=0 / deadzone=21,11 / fast_pskip=0 / chroma_qp_offset=-2 / threads=18 / lookahead_threads=3 / sliced_threads=0 / nr=0 / decimate=1 / interlaced=0 / bluray_compat=0 / constrained_intra=0 / bframes=3 / b_pyramid=2 / b_adapt=1 / b_bias=0 / direct=1 / weightb=1 / open_gop=0 / weightp=2 / keyint=250 / keyint_min=23 / scenecut=40 / intra_refresh=0 / rc_lookahead=40 / rc=2pass / mbtree=1 / bitrate=9466 / ratetol=1.0 / qcomp=0.60 / qpmin=0 / qpmax=69 / qpstep=4 / cplxblur=20.0 / qblur=0.5 / ip_ratio=1.40 / aq=1:1.00
    Language                    : English
    Default                     : Yes
    Forced                      : No
    
    Audio
    ID                          : 2
    Format                      : DTS
    Format/Info                 : Digital Theater Systems
    Codec ID                    : A_DTS
    Duration                    : 1 h 39 min
    Bit rate mode               : Constant
    Bit rate                    : 1 509 kb/s
    Channel(s)                  : 6 channels
    Channel layout              : C L R Ls Rs LFE
    Sampling rate               : 48.0 kHz
    Frame rate                  : 93.750 FPS (512 SPF)
    Bit depth                   : 24 bits
    Compression mode            : Lossy
    Stream size                 : 1.05 GiB (14%)
    Language                    : English
    Default                     : Yes
    Forced                      : No
    
    Menu
    00:00:00.000                : en:00:00:00.000
    00:10:20.620                : en:00:10:20.620
    00:20:07.039                : en:00:20:07.039
    00:31:58.291                : en:00:31:58.291
    00:38:47.325                : en:00:38:47.325
    00:50:07.004                : en:00:50:07.004
    01:01:54.294                : en:01:01:54.294
    01:12:49.031                : en:01:12:49.031
    01:22:36.577                : en:01:22:36.577
    01:32:39.095                : en:01:32:39.095
    Download:
     
  2. Loading...


Share This Page