Google Drive King.Kong.2005.EXTENDED.2160p.UHD.BluRay.x265-DEPTH

Discussion in 'BDRip | 4K' started by DDLbase, Mar 23, 2021.

  1. DDLbase

    DDLbase Administrator Staff Member

    [​IMG]

    Rating: 7.2/10 based on 394,088 user ratings

    Genres: Action, Adventure, Drama, Romance

    A greedy film producer assembles a team of moviemakers and sets out for the infamous Skull Island, where they find more than just cannibalistic natives.

    [​IMG]
    Code:
    General
    Unique ID                   : 171522661282456279886236032375987112836 (0x810A101D85EBAB44A786BCE692AC0B84)
    Complete name               : King.Kong.2005.EXTENDED.2160p.UHD.BluRay.x265-DEPTH.mkv
    Format                      : Matroska
    Format version              : Version 4
    File size                   : 44.6 GiB
    Duration                    : 3 h 20 min
    Overall bit rate mode       : Variable
    Overall bit rate            : 31.9 Mb/s
    Encoded date                : UTC 2017-12-06 19:47:29
    Writing application         : mkvmerge v18.0.0 ('Apricity') 64-bit
    Writing library             : libebml v1.3.5 + libmatroska v1.4.8
    
    Video
    ID                          : 1
    Format                      : HEVC
    Format/Info                 : High Efficiency Video Coding
    Format profile              : Main [email protected]@High
    HDR format                  : SMPTE ST 2086, HDR10 compatible
    Codec ID                    : V_MPEGH/ISO/HEVC
    Duration                    : 3 h 20 min
    Bit rate                    : 24.2 Mb/s
    Width                       : 3 840 pixels
    Height                      : 1 632 pixels
    Display aspect ratio        : 2.35:1
    Frame rate mode             : Constant
    Frame rate                  : 23.976 (24000/1001) FPS
    Color space                 : YUV
    Chroma subsampling          : 4:2:0 (Type 2)
    Bit depth                   : 10 bits
    Bits/(Pixel*Frame)          : 0.161
    Stream size                 : 33.9 GiB (76%)
    Writing library             : x265 2.5+58-06979c042350:[Windows][GCC 6.2.1][64 bit] 10bit
    Encoding settings           : cpuid=1050111 / frame-threads=4 / numa-pools=15,15 / wpp / no-pmode / no-pme / no-psnr / no-ssim / log-level=2 / input-csp=1 / input-res=3840x1632 / interlace=0 / total-frames=287925 / level-idc=51 / high-tier=1 / uhd-bd=0 / ref=4 / no-allow-non-conformance / repeat-headers / annexb / aud / hrd / info / hash=0 / no-temporal-layers / no-open-gop / min-keyint=1 / keyint=24 / bframes=4 / b-adapt=2 / b-pyramid / bframe-bias=0 / rc-lookahead=25 / lookahead-slices=4 / scenecut=40 / no-intra-refresh / ctu=64 / min-cu-size=8 / rect / no-amp / max-tu-size=32 / tu-inter-depth=1 / tu-intra-depth=1 / limit-tu=0 / rdoq-level=2 / dynamic-rd=0.00 / no-ssim-rd / signhide / no-tskip / nr-intra=0 / nr-inter=0 / no-constrained-intra / no-strong-intra-smoothing / max-merge=3 / limit-refs=3 / limit-modes / me=3 / subme=3 / merange=57 / temporal-mvp / weightp / no-weightb / no-analyze-src-pics / deblock=-3:-3 / no-sao / no-sao-non-deblock / rd=4 / no-early-skip / rskip / no-fast-intra / no-tskip-fast / no-cu-lossless / no-b-intra / no-splitrd-skip / rdpenalty=0 / psy-rd=2.00 / psy-rdoq=1.00 / no-rd-refine / analysis-reuse-mode=0 / no-lossless / cbqpoffs=0 / crqpoffs=0 / rc=crf / crf=17.0 / qcomp=0.60 / qpstep=4 / stats-write=0 / stats-read=0 / vbv-maxrate=160000 / vbv-bufsize=160000 / vbv-init=0.9 / crf-max=0.0 / crf-min=0.0 / ipratio=1.40 / pbratio=1.30 / aq-mode=1 / aq-strength=1.00 / cutree / zone-count=0 / no-strict-cbr / qg-size=32 / no-rc-grain / qpmax=69 / qpmin=0 / no-const-vbv / sar=1 / overscan=0 / videoformat=5 / range=0 / colorprim=9 / transfer=16 / colormatrix=9 / chromaloc=1 / chromaloc-top=2 / chromaloc-bottom=2 / display-window=0 / master-display=G(13250,34500)B(7500,3000)R(34000,16000)WP(15635,16450)L(10000000,50) / max-cll=1000,96 / min-luma=0 / max-luma=1023 / log2-max-poc-lsb=8 / vui-timing-info / vui-hrd-info / slices=1 / no-opt-qp-pps / no-opt-ref-list-length-pps / no-multi-pass-opt-rps / scenecut-bias=0.05 / no-opt-cu-delta-qp / no-aq-motion / hdr / hdr-opt / no-dhdr10-opt / analysis-reuse-level=5 / scale-factor=0 / refine-intra=0 / refine-inter=0 / refine-mv=0 / no-limit-sao / ctu-info=0 / no-lowpass-dct / refine-mv-type=0 / copy-pic=1
    Default                     : Yes
    Forced                      : No
    Color range                 : Limited
    Color primaries             : BT.2020
    Transfer characteristics    : PQ
    Matrix coefficients         : BT.2020 non-constant
    Mastering display color pri : Display P3
    Mastering display luminance : min: 0.0050 cd/m2, max: 1000 cd/m2
    Maximum Content Light Level : 1000 cd/m2
    Maximum Frame-Average Light : 96 cd/m2
    
    Audio #1
    ID                          : 2
    Format                      : DTS XLL X
    Format/Info                 : Digital Theater Systems
    Commercial name             : DTS-HD Master Audio
    Codec ID                    : A_DTS
    Duration                    : 3 h 20 min
    Bit rate mode               : Variable
    Bit rate                    : 7 413 kb/s
    Channel(s)                  : 8 channels
    Channel(s)_Original         : Object Based
    ChannelLayout_Original      : Object Based
    Sampling rate               : 48.0 kHz
    Frame rate                  : 93.750 FPS (512 SPF)
    Bit depth                   : 24 bits
    Stream size                 : 10.4 GiB (23%)
    Language                    : English
    Default                     : Yes
    Forced                      : No
    
    Audio #2
    ID                          : 3
    Format                      : AC-3
    Format/Info                 : Audio Coding 3
    Commercial name             : Dolby Digital
    Codec ID                    : A_AC3
    Duration                    : 3 h 20 min
    Bit rate mode               : Constant
    Bit rate                    : 192 kb/s
    Channel(s)                  : 2 channels
    Channel layout              : L R
    Sampling rate               : 48.0 kHz
    Frame rate                  : 31.250 FPS (1536 SPF)
    Compression mode            : Lossy
    Stream size                 : 275 MiB (1%)
    Title                       : Commentary with director Peter Jackson, and co-writer/co-producer Philippa Boyens
    Language                    : English
    Service kind                : Complete Main
    Default                     : No
    Forced                      : No
    
    Text #1
    ID                          : 4
    Format                      : PGS
    Muxing mode                 : zlib
    Codec ID                    : S_HDMV/PGS
    Codec ID/Info               : Picture based subtitle format used on BDs/HD-DVDs
    Duration                    : 3 h 9 min
    Bit rate                    : 21.8 kb/s
    Count of elements           : 3438
    Stream size                 : 29.5 MiB (0%)
    Title                       : SDH
    Language                    : English
    Default                     : No
    Forced                      : No
    
    Text #2
    ID                          : 5
    Format                      : PGS
    Muxing mode                 : zlib
    Codec ID                    : S_HDMV/PGS
    Codec ID/Info               : Picture based subtitle format used on BDs/HD-DVDs
    Duration                    : 3 h 18 min
    Bit rate                    : 16.7 kb/s
    Count of elements           : 2592
    Stream size                 : 23.7 MiB (0%)
    Language                    : French
    Default                     : No
    Forced                      : No
    
    Text #3
    ID                          : 6
    Format                      : PGS
    Muxing mode                 : zlib
    Codec ID                    : S_HDMV/PGS
    Codec ID/Info               : Picture based subtitle format used on BDs/HD-DVDs
    Duration                    : 3 h 18 min
    Bit rate                    : 15.4 kb/s
    Count of elements           : 2596
    Stream size                 : 22.0 MiB (0%)
    Language                    : Spanish
    Default                     : No
    Forced                      : No
    
    Text #4
    ID                          : 7
    Format                      : PGS
    Muxing mode                 : zlib
    Codec ID                    : S_HDMV/PGS
    Codec ID/Info               : Picture based subtitle format used on BDs/HD-DVDs
    Duration                    : 3 h 18 min
    Bit rate                    : 10.9 kb/s
    Count of elements           : 2370
    Stream size                 : 15.6 MiB (0%)
    Language                    : Japanese
    Default                     : No
    Forced                      : No
    
    Text #5
    ID                          : 8
    Format                      : PGS
    Muxing mode                 : zlib
    Codec ID                    : S_HDMV/PGS
    Codec ID/Info               : Picture based subtitle format used on BDs/HD-DVDs
    Duration                    : 3 h 17 min
    Bit rate                    : 15.5 kb/s
    Count of elements           : 2520
    Stream size                 : 21.9 MiB (0%)
    Language                    : Portuguese
    Default                     : No
    Forced                      : No
    
    Text #6
    ID                          : 9
    Format                      : PGS
    Muxing mode                 : zlib
    Codec ID                    : S_HDMV/PGS
    Codec ID/Info               : Picture based subtitle format used on BDs/HD-DVDs
    Duration                    : 3 h 19 min
    Bit rate                    : 80.1 kb/s
    Count of elements           : 7162
    Stream size                 : 114 MiB (0%)
    Title                       : Commentary
    Language                    : English
    Default                     : No
    Forced                      : No
    
    Text #7
    ID                          : 10
    Format                      : PGS
    Muxing mode                 : zlib
    Codec ID                    : S_HDMV/PGS
    Codec ID/Info               : Picture based subtitle format used on BDs/HD-DVDs
    Duration                    : 3 h 19 min
    Bit rate                    : 45.2 kb/s
    Count of elements           : 5534
    Stream size                 : 64.5 MiB (0%)
    Title                       : Commentary
    Language                    : Japanese
    Default                     : No
    Forced                      : No
    
    Menu
    00:00:00.000                : en:00:00:00.000
    00:03:01.848                : en:00:03:01.848
    00:04:19.843                : en:00:04:19.843
    00:06:42.986                : en:00:06:42.986
    00:10:28.711                : en:00:10:28.711
    00:12:32.251                : en:00:12:32.251
    00:14:17.440                : en:00:14:17.440
    00:17:39.934                : en:00:17:39.934
    00:20:24.890                : en:00:20:24.890
    00:24:12.326                : en:00:24:12.326
    00:25:54.678                : en:00:25:54.678
    00:26:12.404                : en:00:26:12.404
    00:27:59.678                : en:00:27:59.678
    00:30:28.577                : en:00:30:28.577
    00:31:06.490                : en:00:31:06.490
    00:33:06.401                : en:00:33:06.401
    00:34:13.551                : en:00:34:13.551
    00:36:54.921                : en:00:36:54.921
    00:39:44.716                : en:00:39:44.716
    00:41:06.547                : en:00:41:06.547
    00:42:30.757                : en:00:42:30.757
    00:43:44.914                : en:00:43:44.914
    00:52:19.219                : en:00:52:19.219
    00:55:48.971                : en:00:55:48.971
    01:02:06.306                : en:01:02:06.306
    01:07:31.839                : en:01:07:31.839
    01:12:38.521                : en:01:12:38.521
    01:14:13.699                : en:01:14:13.699
    01:16:57.988                : en:01:16:57.988
    01:20:22.526                : en:01:20:22.526
    01:22:41.206                : en:01:22:41.206
    01:29:19.563                : en:01:29:19.563
    01:30:15.619                : en:01:30:15.619
    01:32:08.857                : en:01:32:08.857
    01:38:54.387                : en:01:38:54.387
    01:44:43.152                : en:01:44:43.152
    01:46:16.996                : en:01:46:16.996
    01:50:01.053                : en:01:50:01.053
    02:01:40.293                : en:02:01:40.293
    02:09:07.698                : en:02:09:07.698
    02:13:18.032                : en:02:13:18.032
    02:15:50.517                : en:02:15:50.517
    02:21:35.070                : en:02:21:35.070
    02:30:15.548                : en:02:30:15.548
    02:32:10.747                : en:02:32:10.747
    02:34:01.190                : en:02:34:01.190
    02:43:13.826                : en:02:43:13.826
    02:47:49.601                : en:02:47:49.601
    02:52:22.916                : en:02:52:22.916
    02:54:04.309                : en:02:54:04.309
    02:56:23.031                : en:02:56:23.031
    03:03:56.525                : en:03:03:56.525
    03:10:35.090                : en:03:10:35.090
    Download - Mirror 1:
    Download - Mirror 2:
     
  2. Loading...


Share This Page