Google Drive Kingdom.of.Heaven.2005.Directors.Cut.Roadshow.1080p.BluRay.DTS.x264-EPiC

Discussion in 'BDRip | 720p/1080p' started by DDLbase, Aug 20, 2020.

  1. DDLbase

    DDLbase Administrator Staff Member

    [​IMG]

    Rating: 7.2/10 based on 262,314 user ratings

    Genres: Action, Adventure, Drama, History, War

    Balian of Ibelin travels to Jerusalem during the Crusades of the 12th century, and there he finds himself as the defender of the city and its people.

    [​IMG]
    Code:
    General
    Unique ID                   : 221052702287339078048073418638385240600 (0xA64D33AD3F3F334D806663FDD7585A18)
    Complete name               : Kingdom.of.Heaven.2005.Directors.Cut.Roadshow.1080p.BluRay.DTS.x264-EPiC.mkv
    Format                      : Matroska
    Format version              : Version 4
    File size                   : 18.6 GiB
    Duration                    : 3 h 13 min
    Overall bit rate mode       : Variable
    Overall bit rate            : 13.8 Mb/s
    Encoded date                : UTC 2016-07-12 07:22:16
    Writing application         : mkvmerge v9.2.0 ('Photograph') 64bit
    Writing library             : libebml v1.3.3 + libmatroska v1.4.4
    
    Video
    ID                          : 1
    Format                      : AVC
    Format/Info                 : Advanced Video Codec
    Format profile              : [email protected]
    Format settings             : CABAC / 5 Ref Frames
    Format settings, CABAC      : Yes
    Format settings, Reference  : 5 frames
    Codec ID                    : V_MPEG4/ISO/AVC
    Duration                    : 3 h 13 min
    Bit rate                    : 12.0 Mb/s
    Width                       : 1 920 pixels
    Height                      : 818 pixels
    Display aspect ratio        : 2.35:1
    Frame rate mode             : Constant
    Frame rate                  : 23.976 (24000/1001) FPS
    Color space                 : YUV
    Chroma subsampling          : 4:2:0
    Bit depth                   : 8 bits
    Scan type                   : Progressive
    Bits/(Pixel*Frame)          : 0.319
    Stream size                 : 16.3 GiB (87%)
    Writing library             : x264 core 148 r2694 3b70645
    Encoding settings           : cabac=1 / ref=5 / deblock=1:-3:-3 / analyse=0x3:0x133 / me=umh / subme=11 / psy=1 / psy_rd=1.20:0.00 / mixed_ref=1 / me_range=24 / chroma_me=1 / trellis=2 / 8x8dct=1 / cqm=0 / deadzone=21,11 / fast_pskip=0 / chroma_qp_offset=-2 / threads=18 / lookahead_threads=3 / sliced_threads=0 / nr=0 / decimate=0 / interlaced=0 / bluray_compat=0 / constrained_intra=0 / bframes=8 / b_pyramid=2 / b_adapt=2 / b_bias=0 / direct=3 / weightb=1 / open_gop=0 / weightp=2 / keyint=250 / keyint_min=23 / scenecut=40 / intra_refresh=0 / rc_lookahead=120 / rc=crf / mbtree=0 / crf=17.9 / qcomp=0.70 / qpmin=0 / qpmax=35 / qpstep=2 / vbv_maxrate=38000 / vbv_bufsize=30000 / crf_max=0.0 / nal_hrd=none / filler=0 / ip_ratio=1.25 / pb_ratio=1.20 / aq=1:0.70
    Language                    : English
    Default                     : Yes
    Forced                      : No
    
    Audio #1
    ID                          : 2
    Format                      : DTS
    Format/Info                 : Digital Theater Systems
    Codec ID                    : A_DTS
    Duration                    : 3 h 13 min
    Bit rate mode               : Constant
    Bit rate                    : 1 509 kb/s
    Channel(s)                  : 6 channels
    Channel layout              : C L R Ls Rs LFE
    Sampling rate               : 48.0 kHz
    Frame rate                  : 93.750 FPS (512 SPF)
    Bit depth                   : 24 bits
    Compression mode            : Lossy
    Stream size                 : 2.04 GiB (11%)
    Language                    : English
    Default                     : Yes
    Forced                      : No
    
    Audio #2
    ID                          : 3
    Format                      : Vorbis
    Format settings, Floor      : 1
    Codec ID                    : A_VORBIS
    Duration                    : 3 h 13 min
    Bit rate mode               : Variable
    Bit rate                    : 80.0 kb/s
    Channel(s)                  : 2 channels
    Sampling rate               : 48.0 kHz
    Frame rate                  : 74.925 FPS (641 SPF)
    Compression mode            : Lossy
    Stream size                 : 108 MiB (1%)
    Title                       : Commentary with director Ridley Scott, writer William Monahan and Orlando Bloom
    Writing library             : aoTuV 20110424 (UTC 2011-04-24)
    Language                    : English
    Default                     : No
    Forced                      : No
    
    Audio #3
    ID                          : 4
    Format                      : Vorbis
    Format settings, Floor      : 1
    Codec ID                    : A_VORBIS
    Duration                    : 3 h 13 min
    Bit rate mode               : Variable
    Bit rate                    : 80.0 kb/s
    Channel(s)                  : 2 channels
    Sampling rate               : 48.0 kHz
    Frame rate                  : 73.593 FPS (652 SPF)
    Compression mode            : Lossy
    Stream size                 : 109 MiB (1%)
    Title                       : Commentary with executive producer Lisa Ellzey, visual effects supervisor Wesley Sewell and first assistant director Adam Somner
    Writing library             : aoTuV 20110424 (UTC 2011-04-24)
    Language                    : English
    Default                     : No
    Forced                      : No
    
    Audio #4
    ID                          : 5
    Format                      : Vorbis
    Format settings, Floor      : 1
    Codec ID                    : A_VORBIS
    Duration                    : 3 h 13 min
    Bit rate mode               : Variable
    Bit rate                    : 80.0 kb/s
    Channel(s)                  : 2 channels
    Sampling rate               : 48.0 kHz
    Frame rate                  : 66.301 FPS (724 SPF)
    Compression mode            : Lossy
    Stream size                 : 104 MiB (1%)
    Title                       : Commentary with editor Dody Dorn
    Writing library             : aoTuV 20110424 (UTC 2011-04-24)
    Language                    : English
    Default                     : No
    Forced                      : No
    
    Text #1
    ID                          : 6
    Format                      : UTF-8
    Codec ID                    : S_TEXT/UTF8
    Codec ID/Info               : UTF-8 Plain Text
    Duration                    : 3 h 3 min
    Bit rate                    : 30 b/s
    Count of elements           : 1264
    Stream size                 : 40.8 KiB (0%)
    Title                       : SDH
    Language                    : English
    Default                     : No
    Forced                      : No
    
    Text #2
    ID                          : 7
    Format                      : UTF-8
    Codec ID                    : S_TEXT/UTF8
    Codec ID/Info               : UTF-8 Plain Text
    Duration                    : 3 h 13 min
    Bit rate                    : 28 b/s
    Count of elements           : 978
    Stream size                 : 39.9 KiB (0%)
    Language                    : French
    Default                     : No
    Forced                      : No
    
    Text #3
    ID                          : 8
    Format                      : UTF-8
    Codec ID                    : S_TEXT/UTF8
    Codec ID/Info               : UTF-8 Plain Text
    Duration                    : 3 h 13 min
    Bit rate                    : 27 b/s
    Count of elements           : 1142
    Stream size                 : 38.9 KiB (0%)
    Language                    : Spanish
    Default                     : No
    Forced                      : No
    
    Menu
    00:00:00.000                : en:Overture
    00:02:23.143                : en:Crossroads
    00:06:10.245                : en:Crusaders
    00:08:57.537                : en:Without an Heir
    00:11:03.538                : en:Sin
    00:13:20.341                : en:Old Memories
    00:16:19.020                : en:The Baron's Son
    00:19:56.320                : en:In Hell
    00:22:25.928                : en:To Erase My Sins
    00:23:48.302                : en:The Guard of the Hawk
    00:26:01.602                : en:Whoever Dies Here Today
    00:32:35.495                : en:The Path to Heaven
    00:34:27.941                : en:A Better World
    00:36:33.691                : en:Remember That Name
    00:38:30.642                : en:The Knight's Oath
    00:40:56.663                : en:Perilous Journey
    00:43:39.659                : en:The Saracen's Challenge
    00:47:36.228                : en:Jerusalem
    00:50:48.420                : en:The New Baron
    00:53:18.070                : en:Sibylla
    00:55:59.314                : en:The Marshall of Jerusalem
    00:58:23.417                : en:His Father's Son
    01:00:17.239                : en:At the King's Table
    01:03:03.154                : en:The Leper King
    01:07:44.936                : en:Ibelin
    01:12:01.067                : en:Guests of the House
    01:17:51.125                : en:There Is Only Light
    01:20:24.361                : en:God Wills It
    01:21:50.072                : en:Tokens
    01:23:11.904                : en:Blasphemy
    01:26:15.545                : en:Defenders of Kerak
    01:31:15.387                : en:The Friendly Enemy
    01:32:29.794                : en:Jerusalem Has Come
    01:35:48.451                : en:The Kiss of Peace
    01:39:17.118                : en:Entr'acte
    01:41:37.967                : en:Quake for Islam
    01:44:01.652                : en:Power
    01:46:14.660                : en:An Understanding
    01:49:39.031                : en:Conscience or Nothing
    01:54:41.166                : en:The Final Dream
    01:59:16.524                : en:Long Live the King
    02:00:48.867                : en:The Reckoning
    02:02:30.510                : en:A Mother's Pain
    02:06:25.995                : en:Templars' Attack
    02:08:29.744                : en:Queen of Jerusalem
    02:09:21.879                : en:Beloved Sister
    02:12:07.753                : en:He Is Waiting
    02:16:09.036                : en:The Road to Hattin
    02:17:50.637                : en:A King's Example
    02:20:40.557                : en:Four Days
    02:22:29.541                : en:To Defend Jerusalem
    02:26:12.305                : en:Rise a Knight
    02:28:38.493                : en:Siege
    02:33:18.856                : en:Retaliation
    02:39:22.803                : en:The Third Day
    02:41:45.571                : en:God Will Understand
    02:43:43.731                : en:The Door Into Jerusalem
    02:45:52.401                : en:Final Stand
    02:49:31.453                : en:Nothing and Everything
    02:55:17.298                : en:The Perfect Knight
    02:57:43.486                : en:Leaving Jerusalem
    03:00:27.275                : en:A Queen Never Walks
    03:01:44.227                : en:I Am the Blacksmith
    03:04:59.964                : en:Epilogue/End Credits
    Download - Mirror 1:
    Download - Mirror 2:
     
  2. Loading...


Share This Page