Google Drive Knight.of.Cups.2015.1080p.BluRay.x264-VETO

Discussion in 'BDRip | 720p/1080p' started by DDLbase, Nov 28, 2021.

  1. DDLbase

    DDLbase Administrator Staff Member

    [​IMG]

    Rating: 5.7/10 based on 26,375 user ratings

    Genres: Drama, Romance

    A writer indulging in all that Los Angeles and Las Vegas has to offer undertakes a search for love and self via a series of adventures with six different women.

    [​IMG]
    Code:
    General
    Complete name               : Knight.of.Cups.2015.1080p.BluRay.x264-VETO.mkv
    Format                      : Matroska
    Format version              : Version 2
    File size                   : 8.73 GiB
    Duration                    : 1 h 58 min
    Overall bit rate            : 10.6 Mb/s
    Writing application         : mkvmerge v4.1.1 ('Bouncin' Back') built on Jul  3 2010 22:54:08
    Writing library             : libebml v1.0.0 + libmatroska v1.0
    
    Video
    ID                          : 1
    Format                      : AVC
    Format/Info                 : Advanced Video Codec
    Format profile              : [email protected]
    Format settings             : CABAC / 5 Ref Frames
    Format settings, CABAC      : Yes
    Format settings, Reference  : 5 frames
    Codec ID                    : V_MPEG4/ISO/AVC
    Duration                    : 1 h 58 min
    Bit rate                    : 9 056 kb/s
    Width                       : 1 920 pixels
    Height                      : 816 pixels
    Display aspect ratio        : 2.35:1
    Frame rate mode             : Constant
    Frame rate                  : 23.976 (24000/1001) FPS
    Color space                 : YUV
    Chroma subsampling          : 4:2:0
    Bit depth                   : 8 bits
    Scan type                   : Progressive
    Bits/(Pixel*Frame)          : 0.241
    Stream size                 : 7.31 GiB (84%)
    Writing library             : x264 core 148 r2638 7599210
    Encoding settings           : cabac=1 / ref=5 / deblock=1:1:1 / analyse=0x3:0x133 / me=umh / subme=8 / psy=1 / psy_rd=1.00:0.00 / mixed_ref=1 / me_range=16 / chroma_me=1 / trellis=1 / 8x8dct=1 / cqm=0 / deadzone=21,11 / fast_pskip=0 / chroma_qp_offset=-2 / threads=18 / lookahead_threads=3 / sliced_threads=0 / nr=0 / decimate=1 / interlaced=0 / bluray_compat=0 / constrained_intra=0 / bframes=3 / b_pyramid=2 / b_adapt=2 / b_bias=0 / direct=3 / weightb=1 / open_gop=0 / weightp=2 / keyint=240 / keyint_min=23 / scenecut=40 / intra_refresh=0 / rc_lookahead=50 / rc=2pass / mbtree=1 / bitrate=9056 / ratetol=1.0 / qcomp=0.60 / qpmin=0 / qpmax=69 / qpstep=4 / cplxblur=20.0 / qblur=0.5 / ip_ratio=1.40 / aq=1:1.00
    Language                    : English
    Default                     : Yes
    Forced                      : No
    
    Audio
    ID                          : 2
    Format                      : DTS
    Format/Info                 : Digital Theater Systems
    Codec ID                    : A_DTS
    Duration                    : 1 h 58 min
    Bit rate mode               : Constant
    Bit rate                    : 1 509 kb/s
    Channel(s)                  : 6 channels
    Channel layout              : C L R Ls Rs LFE
    Sampling rate               : 48.0 kHz
    Frame rate                  : 93.750 FPS (512 SPF)
    Bit depth                   : 24 bits
    Compression mode            : Lossy
    Stream size                 : 1.25 GiB (14%)
    Language                    : English
    Default                     : Yes
    Forced                      : No
    
    Menu
    00:00:00.000                : en:00:00:00.000
    00:09:33.406                : en:00:09:33.406
    00:21:16.400                : en:00:21:16.400
    00:30:05.679                : en:00:30:05.679
    00:39:28.324                : en:00:39:28.324
    00:49:00.146                : en:00:49:00.146
    00:59:26.646                : en:00:59:26.646
    01:10:42.613                : en:01:10:42.613
    01:21:11.408                : en:01:21:11.408
    01:30:31.593                : en:01:30:31.593
    01:40:46.624                : en:01:40:46.624
    01:51:10.414                : en:01:51:10.414
    01:58:10.166                : en:01:58:10.166
    Download - Mirror 1:
    Download - Mirror 2:
     
  2. Loading...


Share This Page