Google Drive Knock.at.the.Cabin.2023.2160p.WEB-DL.DDP5.1.Atmos.DV.HDR10.H.265-CMRG

Discussion in 'Web-DL / Webrip | 4K' started by DDLbase, Feb 22, 2023.

  1. DDLbase

    DDLbase Administrator Staff Member

    [​IMG]

    Rating: 6.4/10 based on 21,367 user ratings

    Genres: Horror, Mystery, Thriller

    While vacationing, a girl and her parents are taken hostage by armed strangers who demand that the family make a choice to avert the apocalypse.

    [​IMG]
    Code:
    General
    Unique ID                   : 15418245630620553270715448106842351790 (0xB997233480DC0711C976903C6A868AE)
    Complete name               : Knock.at.the.Cabin.2023.2160p.WEB-DL.DDP5.1.Atmos.DV.HDR10.H.265-CMRG.mkv
    Format                      : Matroska
    Format version              : Version 4
    File size                   : 17.6 GiB
    Duration                    : 1 h 40 min
    Overall bit rate            : 25.1 Mb/s
    Writing application         : mkvmerge v74.0.0 ('You Oughta Know') 64-bit
    Writing library             : libebml v1.4.4 + libmatroska v1.7.1
    
    Video
    ID                          : 1
    Format                      : HEVC
    Format/Info                 : High Efficiency Video Coding
    Format profile              : Main 10@L5@High
    HDR format                  : Dolby Vision, Version 1.0, dvhe.08.06, BL+RPU, HDR10 compatible / SMPTE ST 2094 App 4, Version 1, HDR10+ Profile B compatible
    Codec ID                    : V_MPEGH/ISO/HEVC
    Duration                    : 1 h 40 min
    Bit rate                    : 24.3 Mb/s
    Width                       : 3 840 pixels
    Height                      : 1 600 pixels
    Display aspect ratio        : 2.40:1
    Frame rate mode             : Constant
    Frame rate                  : 23.976 (24000/1001) FPS
    Color space                 : YUV
    Chroma subsampling          : 4:2:0 (Type 2)
    Bit depth                   : 10 bits
    Bits/(Pixel*Frame)          : 0.165
    Stream size                 : 17.0 GiB (97%)
    Language                    : English
    Default                     : Yes
    Forced                      : No
    Color range                 : Limited
    Color primaries             : BT.2020
    Transfer characteristics    : PQ
    Matrix coefficients         : BT.2020 non-constant
    Mastering display color pri : BT.2020
    Mastering display luminance : min: 0.0050 cd/m2, max: 1000 cd/m2
    Maximum Content Light Level : 149 cd/m2
    Maximum Frame-Average Light : 56 cd/m2
    
    Audio
    ID                          : 2
    Format                      : E-AC-3 JOC
    Format/Info                 : Enhanced AC-3 with Joint Object Coding
    Commercial name             : Dolby Digital Plus with Dolby Atmos
    Codec ID                    : A_EAC3
    Duration                    : 1 h 40 min
    Bit rate mode               : Constant
    Bit rate                    : 768 kb/s
    Channel(s)                  : 6 channels
    Channel layout              : L R C LFE Ls Rs
    Sampling rate               : 48.0 kHz
    Frame rate                  : 31.250 FPS (1536 SPF)
    Compression mode            : Lossy
    Stream size                 : 550 MiB (3%)
    Language                    : English
    Service kind                : Complete Main
    Default                     : Yes
    Forced                      : No
    Complexity index            : 16
    Number of dynamic objects   : 15
    Bed channel count           : 1 channel
    Bed channel configuration   : LFE
    
    Text #1
    ID                          : 3
    Format                      : UTF-8
    Codec ID                    : S_TEXT/UTF8
    Codec ID/Info               : UTF-8 Plain Text
    Duration                    : 1 h 30 min
    Bit rate                    : 64 b/s
    Frame rate                  : 0.223 FPS
    Count of elements           : 1208
    Stream size                 : 42.3 KiB (0%)
    Language                    : English
    Default                     : No
    Forced                      : No
    
    Text #2
    ID                          : 4
    Format                      : UTF-8
    Codec ID                    : S_TEXT/UTF8
    Codec ID/Info               : UTF-8 Plain Text
    Duration                    : 1 h 38 min
    Bit rate                    : 67 b/s
    Frame rate                  : 0.248 FPS
    Count of elements           : 1460
    Stream size                 : 48.7 KiB (0%)
    Title                       : SDH
    Language                    : English
    Default                     : No
    Forced                      : No
    
    Text #3
    ID                          : 5
    Format                      : UTF-8
    Codec ID                    : S_TEXT/UTF8
    Codec ID/Info               : UTF-8 Plain Text
    Duration                    : 1 h 39 min
    Bit rate                    : 51 b/s
    Frame rate                  : 0.198 FPS
    Count of elements           : 1177
    Stream size                 : 37.2 KiB (0%)
    Title                       : Latin American
    Language                    : Spanish
    Default                     : No
    Forced                      : No
    
    Text #4
    ID                          : 6
    Format                      : UTF-8
    Codec ID                    : S_TEXT/UTF8
    Codec ID/Info               : UTF-8 Plain Text
    Duration                    : 1 h 37 min
    Bit rate                    : 48 b/s
    Frame rate                  : 0.203 FPS
    Count of elements           : 1182
    Stream size                 : 34.6 KiB (0%)
    Title                       : Canadian
    Language                    : French
    Default                     : No
    Forced                      : No
    
    Menu
    00:00:00.000                : en:Chapter 01
    00:06:20.714                : en:Chapter 02
    00:13:07.746                : en:Chapter 03
    00:18:39.994                : en:Chapter 04
    00:25:54.721                : en:Chapter 05
    00:29:53.251                : en:Chapter 06
    00:35:56.322                : en:Chapter 07
    00:42:53.406                : en:Chapter 08
    00:49:11.534                : en:Chapter 09
    00:54:15.797                : en:Chapter 10
    00:59:59.015                : en:Chapter 11
    01:06:56.057                : en:Chapter 12
    01:13:12.976                : en:Chapter 13
    01:19:29.269                : en:Chapter 14
    01:22:34.329                : en:Chapter 15
    01:31:23.817                : en:Chapter 16
    Download - Mirror 1:
    Download - Mirror 2:
    Download - Mirror 3:
     
  2. Loading...


Share This Page