Google Drive Lady Bird 2017 BluRay 1080p DTS-HD MA 5.1 AVC REMUX-FraMeSToR

Discussion in 'BD REMUX | 1080p' started by DDLbase, Mar 28, 2020.

  1. DDLbase

    DDLbase Administrator Staff Member

    [​IMG]

    Lady Bird (2017)

    [​IMG] 7.4/10 [​IMG] 195,930

    Plot

    In 2002, an artistically inclined seventeen-year-old girl comes of age in Sacramento, California.

    Movie Info
    • Rating: R
    • Genre: Comedy, Drama
    • Directed By: Greta Gerwig
    • Written By: Greta Gerwig
    • Starring: Saoirse Ronan, Laurie Metcalf, Tracy Letts, Lucas Hedges
    • Release Date: 01 Dec 2017
    • Runtime: 94 min
    • Production: A24
    Code:
    General
    Unique ID                                : 177410261384308286229634961793292161888 (0x8577F9364208E13769DDA94F6E53D360)
    Complete name                            : Lady.Bird.2017.BluRay.1080p.DTS-HD.MA.5.1.AVC.REMUX-FraMeSToR.mkv
    Format                                   : Matroska
    Format version                           : Version 4 / Version 2
    File size                                : 14.8 GiB
    Duration                                 : 1 h 34 min
    Overall bit rate mode                    : Variable
    Overall bit rate                         : 22.5 Mb/s
    Movie name                               : Lady Bird
    Encoded date                             : UTC 2018-02-27 18:20:46
    Writing application                      : mkvmerge v21.0.0 ('Tardigrades Will Inherit The Earth') 64-bit
    Writing library                          : libebml v1.3.5 + libmatroska v1.4.8
    
    Video
    ID                                       : 1
    Format                                   : AVC
    Format/Info                              : Advanced Video Codec
    Format profile                           : [email protected]
    Format settings                          : CABAC / 4 Ref Frames
    Format settings, CABAC                   : Yes
    Format settings, ReFrames                : 4 frames
    Codec ID                                 : V_MPEG4/ISO/AVC
    Duration                                 : 1 h 34 min
    Bit rate mode                            : Variable
    Bit rate                                 : 19.0 Mb/s
    Maximum bit rate                         : 37.0 Mb/s
    Width                                    : 1 920 pixels
    Height                                   : 1 080 pixels
    Display aspect ratio                     : 16:9
    Frame rate mode                          : Constant
    Frame rate                               : 23.976 (24000/1001) FPS
    Color space                              : YUV
    Chroma subsampling                       : 4:2:0
    Bit depth                                : 8 bits
    Scan type                                : Progressive
    Bits/(Pixel*Frame)                       : 0.381
    Stream size                              : 12.5 GiB (84%)
    Default                                  : Yes
    Forced                                   : No
    
    Audio #1
    ID                                       : 2
    Format                                   : DTS
    Format/Info                              : Digital Theater Systems
    Format profile                           : MA / Core
    Codec ID                                 : A_DTS
    Duration                                 : 1 h 33 min
    Bit rate mode                            : Variable / Constant
    Bit rate                                 : 3 228 kb/s / 1 509 kb/s
    Channel(s)                               : 6 channels
    Channel positions                        : Front: L C R, Side: L R, LFE
    Sampling rate                            : 48.0 kHz
    Frame rate                               : 93.750 FPS (512 SPF)
    Bit depth                                : 24 bits
    Compression mode                         : Lossless / Lossy
    Stream size                              : 2.11 GiB (14%)
    Title                                    : DTS-HD MA 5.1
    Language                                 : English
    Default                                  : Yes
    Forced                                   : No
    
    Audio #2
    ID                                       : 3
    Format                                   : AC-3
    Format/Info                              : Audio Coding 3
    Codec ID                                 : A_AC3
    Duration                                 : 1 h 34 min
    Bit rate mode                            : Constant
    Bit rate                                 : 192 kb/s
    Channel(s)                               : 2 channels
    Channel positions                        : Front: L R
    Sampling rate                            : 48.0 kHz
    Frame rate                               : 31.250 FPS (1536 SPF)
    Bit depth                                : 16 bits
    Compression mode                         : Lossy
    Stream size                              : 129 MiB (1%)
    Title                                    : Commentary by Greta Gerwig/Sam Levy
    Language                                 : English
    Service kind                             : Complete Main
    Default                                  : No
    Forced                                   : No
    
    Text #1
    ID                                       : 4
    Format                                   : PGS
    Codec ID                                 : S_HDMV/PGS
    Codec ID/Info                            : Picture based subtitle format used on BDs/HD-DVDs
    Duration                                 : 1 h 33 min
    Bit rate                                 : 55.1 kb/s
    Count of elements                        : 3236
    Stream size                              : 36.8 MiB (0%)
    Title                                    : English (SDH)
    Language                                 : English
    Default                                  : No
    Forced                                   : No
    
    Text #2
    ID                                       : 5
    Format                                   : PGS
    Codec ID                                 : S_HDMV/PGS
    Codec ID/Info                            : Picture based subtitle format used on BDs/HD-DVDs
    Duration                                 : 1 h 28 min
    Bit rate                                 : 46.2 kb/s
    Count of elements                        : 2654
    Stream size                              : 29.1 MiB (0%)
    Title                                    : Spanish (Latin American)
    Language                                 : Spanish
    Default                                  : No
    Forced                                   : No
    
    Menu
    00:00:00.000                             : en:Chapter 01
    00:05:59.651                             : en:Chapter 02
    00:11:17.427                             : en:Chapter 03
    00:18:20.391                             : en:Chapter 04
    00:22:15.960                             : en:Chapter 05
    00:27:46.290                             : en:Chapter 06
    00:33:56.284                             : en:Chapter 07
    00:40:33.639                             : en:Chapter 08
    00:45:51.040                             : en:Chapter 09
    00:51:02.017                             : en:Chapter 10
    00:57:29.071                             : en:Chapter 11
    01:03:11.371                             : en:Chapter 12
    01:08:32.358                             : en:Chapter 13
    01:14:06.066                             : en:Chapter 14
    01:21:17.039                             : en:Chapter 15
    01:25:26.455                             : en:Chapter 16
    Download:
     
  2. Loading...


Share This Page