Google Drive Lady.Bloodfight.2016.1080p.BluRay.x264-DDR

Discussion in 'BDRip | 720p/1080p' started by DDLbase, Feb 18, 2021.

  1. DDLbase

    DDLbase Administrator Staff Member

    [​IMG]

    Genres: Action, Crime, Drama

    Upon arriving in Hong Kong, an American woman is beaten up and mugged by thugs. She's taken in by a martial arts master who trains her for a formidable fight competition known as the Kumite.

    [​IMG]
    Code:
    General
    Unique ID                   : 181117123744386328845469434147453867479 (0x8841E3A30223FF33B26F8921388115D7)
    Complete name               : Lady.Bloodfight.2016.1080p.BluRay.x264-DDR.mkv
    Format                      : Matroska
    Format version              : Version 4
    File size                   : 9.29 GiB
    Duration                    : 1 h 36 min
    Overall bit rate mode       : Variable
    Overall bit rate            : 13.8 Mb/s
    Encoded date                : UTC 2017-01-11 01:54:48
    Writing application         : mkvmerge v9.6.0 ('Slave To Your Mind') 64bit
    Writing library             : libebml v1.3.4 + libmatroska v1.4.5
    
    Video
    ID                          : 1
    Format                      : AVC
    Format/Info                 : Advanced Video Codec
    Format profile              : [email protected]
    Format settings             : CABAC / 5 Ref Frames
    Format settings, CABAC      : Yes
    Format settings, Reference  : 5 frames
    Codec ID                    : V_MPEG4/ISO/AVC
    Duration                    : 1 h 36 min
    Bit rate                    : 10.0 Mb/s
    Width                       : 1 920 pixels
    Height                      : 800 pixels
    Display aspect ratio        : 2.40:1
    Frame rate mode             : Constant
    Frame rate                  : 25.000 FPS
    Color space                 : YUV
    Chroma subsampling          : 4:2:0
    Bit depth                   : 8 bits
    Scan type                   : Progressive
    Bits/(Pixel*Frame)          : 0.260
    Stream size                 : 6.74 GiB (72%)
    Writing library             : x264 core 148 r2744 b97ae06
    Encoding settings           : cabac=1 / ref=5 / deblock=1:-2:-1 / analyse=0x3:0x133 / me=umh / subme=10 / psy=1 / psy_rd=1.00:1.50 / mixed_ref=1 / me_range=32 / chroma_me=1 / trellis=2 / 8x8dct=1 / cqm=0 / deadzone=21,11 / fast_pskip=1 / chroma_qp_offset=-4 / threads=25 / lookahead_threads=4 / sliced_threads=0 / nr=0 / decimate=0 / interlaced=0 / bluray_compat=0 / constrained_intra=0 / bframes=8 / b_pyramid=0 / b_adapt=2 / b_bias=0 / direct=3 / weightb=1 / open_gop=0 / weightp=2 / keyint=240 / keyint_min=1 / scenecut=288 / intra_refresh=0 / rc_lookahead=60 / rc=2pass / mbtree=1 / bitrate=10001 / ratetol=1.0 / qcomp=0.90 / qpmin=3 / qpmax=69 / qpstep=4 / cplxblur=20.0 / qblur=0.5 / ip_ratio=1.40 / aq=1:1.00
    Language                    : English
    Default                     : Yes
    Forced                      : No
    Color range                 : Limited
    Color primaries             : BT.709
    Transfer characteristics    : BT.709
    Matrix coefficients         : BT.709
    
    Audio
    ID                          : 2
    Format                      : DTS XLL
    Format/Info                 : Digital Theater Systems
    Commercial name             : DTS-HD Master Audio
    Codec ID                    : A_DTS
    Duration                    : 1 h 36 min
    Bit rate mode               : Variable
    Bit rate                    : 3 722 kb/s
    Channel(s)                  : 6 channels
    Channel layout              : C L R Ls Rs LFE
    Sampling rate               : 48.0 kHz
    Frame rate                  : 93.750 FPS (512 SPF)
    Bit depth                   : 24 bits
    Compression mode            : Lossless
    Stream size                 : 2.51 GiB (27%)
    Language                    : English
    Default                     : Yes
    Forced                      : No
    
    Text #1
    ID                          : 3
    Format                      : PGS
    Muxing mode                 : zlib
    Codec ID                    : S_HDMV/PGS
    Codec ID/Info               : Picture based subtitle format used on BDs/HD-DVDs
    Duration                    : 1 h 33 min
    Bit rate                    : 17.5 kb/s
    Count of elements           : 809
    Stream size                 : 11.7 MiB (0%)
    Language                    : Danish
    Default                     : Yes
    Forced                      : No
    
    Text #2
    ID                          : 4
    Format                      : PGS
    Muxing mode                 : zlib
    Codec ID                    : S_HDMV/PGS
    Codec ID/Info               : Picture based subtitle format used on BDs/HD-DVDs
    Duration                    : 1 h 31 min
    Bit rate                    : 17.2 kb/s
    Count of elements           : 807
    Stream size                 : 11.3 MiB (0%)
    Language                    : Norwegian
    Default                     : No
    Forced                      : No
    
    Text #3
    ID                          : 5
    Format                      : PGS
    Muxing mode                 : zlib
    Codec ID                    : S_HDMV/PGS
    Codec ID/Info               : Picture based subtitle format used on BDs/HD-DVDs
    Duration                    : 1 h 31 min
    Bit rate                    : 17.9 kb/s
    Count of elements           : 794
    Stream size                 : 11.7 MiB (0%)
    Language                    : Finnish
    Default                     : No
    Forced                      : No
    
    Text #4
    ID                          : 6
    Format                      : PGS
    Muxing mode                 : zlib
    Codec ID                    : S_HDMV/PGS
    Codec ID/Info               : Picture based subtitle format used on BDs/HD-DVDs
    Duration                    : 1 h 31 min
    Bit rate                    : 17.8 kb/s
    Count of elements           : 807
    Stream size                 : 11.7 MiB (0%)
    Language                    : Swedish
    Default                     : No
    Forced                      : No
    
    Menu
    00:00:00.000                : en:00:00:00.000
    00:08:18.800                : en:00:08:18.800
    00:22:43.160                : en:00:22:43.160
    00:34:25.000                : en:00:34:25.000
    00:45:09.880                : en:00:45:09.880
    00:59:15.280                : en:00:59:15.280
    01:12:35.920                : en:01:12:35.920
    01:21:39.600                : en:01:21:39.600
    01:28:42.520                : en:01:28:42.520
    01:34:05.280                : en:01:34:05.280
    Download - Mirror 1:
    Download - Mirror 2:
     
  2. Loading...


Share This Page