Google Drive Lego.DC.Shazam.Magic.And.Monsters.2020.1080p.BluRay.DTS.x264-CMRG

Discussion in 'BDRip | 720p/1080p' started by DDLbase, Dec 4, 2020.

  1. DDLbase

    DDLbase Administrator Staff Member

    [​IMG]

    Rating: 6.2/10 based on 612 user ratings

    Genres: Animation, Comedy, Family, Fantasy

    When the boy hero Shazam is offered to join the Justice League he is reluctant about it, but when his rivals the Monster Society put the League in peril he’s the only one who can save them.

    [​IMG]
    Code:
    General
    Unique ID                   : 167290652346595774156445514933950083561 (0x7DDB01F71F54B0676F80F72FAFE9F1E9)
    Complete name               : Lego.DC.Shazam.Magic.And.Monsters.2020.1080p.BluRay.DTS.x264-CMRG.mkv
    Format                      : Matroska
    Format version              : Version 4
    File size                   : 9.98 GiB
    Duration                    : 1 h 21 min
    Overall bit rate mode       : Variable
    Overall bit rate            : 17.6 Mb/s
    Movie name                  : LEGO® DC Shazam!™: Magic and Monsters
    Encoded date                : UTC 2020-06-04 17:26:26
    Writing application         : mkvmerge v44.0.0 ('Domino') 64-bit
    Writing library             : libebml v1.3.10 + libmatroska v1.5.2
    Cover                       : Yes
    Attachments                 : cover.jpg
    
    Video
    ID                          : 1
    Format                      : AVC
    Format/Info                 : Advanced Video Codec
    Format profile              : [email protected]
    Format settings             : CABAC / 4 Ref Frames
    Format settings, CABAC      : Yes
    Format settings, Reference  : 4 frames
    Codec ID                    : V_MPEG4/ISO/AVC
    Duration                    : 1 h 21 min
    Bit rate                    : 15.0 Mb/s
    Width                       : 1 920 pixels
    Height                      : 1 080 pixels
    Display aspect ratio        : 16:9
    Frame rate mode             : Constant
    Frame rate                  : 23.976 (24000/1001) FPS
    Color space                 : YUV
    Chroma subsampling          : 4:2:0
    Bit depth                   : 8 bits
    Scan type                   : Progressive
    Bits/(Pixel*Frame)          : 0.302
    Stream size                 : 8.60 GiB (86%)
    Writing library             : x264 core 159 r2991 1771b55
    Encoding settings           : cabac=1 / ref=3 / deblock=1:0:0 / analyse=0x3:0x113 / me=umh / subme=7 / psy=1 / psy_rd=1.00:0.00 / mixed_ref=1 / me_range=16 / chroma_me=1 / trellis=2 / 8x8dct=1 / cqm=0 / deadzone=21,11 / fast_pskip=1 / chroma_qp_offset=-2 / threads=18 / lookahead_threads=3 / sliced_threads=0 / nr=0 / decimate=1 / interlaced=0 / bluray_compat=0 / constrained_intra=0 / bframes=3 / b_pyramid=2 / b_adapt=2 / b_bias=0 / direct=1 / weightb=1 / open_gop=0 / weightp=2 / keyint=250 / keyint_min=23 / scenecut=40 / intra_refresh=0 / rc_lookahead=40 / rc=abr / mbtree=1 / bitrate=15000 / ratetol=1.0 / qcomp=0.60 / qpmin=0 / qpmax=69 / qpstep=4 / ip_ratio=1.40 / aq=1:1.00
    Default                     : Yes
    Forced                      : No
    
    Audio
    ID                          : 2
    Format                      : DTS XLL
    Format/Info                 : Digital Theater Systems
    Commercial name             : DTS-HD Master Audio
    Codec ID                    : A_DTS
    Duration                    : 1 h 21 min
    Bit rate mode               : Variable
    Bit rate                    : 2 393 kb/s
    Channel(s)                  : 6 channels
    Channel layout              : C L R Ls Rs LFE
    Sampling rate               : 48.0 kHz
    Frame rate                  : 93.750 FPS (512 SPF)
    Bit depth                   : 16 bits
    Compression mode            : Lossless
    Stream size                 : 1.36 GiB (14%)
    Language                    : English
    Default                     : No
    Forced                      : No
    
    Text
    ID                          : 3
    Format                      : PGS
    Muxing mode                 : zlib
    Codec ID                    : S_HDMV/PGS
    Codec ID/Info               : Picture based subtitle format used on BDs/HD-DVDs
    Duration                    : 1 h 18 min
    Bit rate                    : 43.6 kb/s
    Count of elements           : 2856
    Stream size                 : 24.4 MiB (0%)
    Language                    : English
    Default                     : No
    Forced                      : No
    
    Menu
    00:00:00.000                : en:Capítulo 01
    00:08:35.890                : en:Capítulo 02
    00:17:30.382                : en:Capítulo 03
    00:27:37.822                : en:Capítulo 04
    00:36:30.688                : en:Capítulo 05
    00:44:25.204                : en:Capítulo 06
    00:51:21.453                : en:Capítulo 07
    00:57:24.232                : en:Capítulo 08
    01:04:08.719                : en:Capítulo 09
    01:13:58.016                : en:Capítulo 10
    01:18:54.187                : en:Capítulo 11
    Download - Mirror 1:
    Download - Mirror 2:
     
  2. Loading...


Share This Page