Google Drive Lionheart.1990.DC.1080p.BluRay.x264-CREEPSHOW

Discussion in 'BDRip | 720p/1080p' started by DDLbase, Sep 16, 2020.

  1. DDLbase

    DDLbase Administrator Staff Member

    [​IMG]

    Rating: 6.2/10 based on 32,236 user ratings

    Genres: Action, Crime, Drama, Sport

    An Ex-French Soldier begins participating in underground street fights in order to make money for his brother’s family.

    [​IMG]
    Code:
    General
    Unique ID                   : 232952694976317312824749099405257839068 (0xAF410E9D52B4C4808A09888929B991DC)
    Complete name               : Lionheart.1990.DC.1080p.BluRay.x264-CREEPSHOW.mkv
    Format                      : Matroska
    Format version              : Version 4
    File size                   : 9.83 GiB
    Duration                    : 1 h 50 min
    Overall bit rate            : 12.8 Mb/s
    Encoded date                : UTC 2015-05-10 21:38:38
    Writing application         : mkvmerge v7.8.0 ('River Man') 64bit built on Mar 27 2015 16:31:37
    Writing library             : libebml v1.3.1 + libmatroska v1.4.2
    
    Video
    ID                          : 1
    Format                      : AVC
    Format/Info                 : Advanced Video Codec
    Format profile              : [email protected]
    Format settings             : CABAC / 4 Ref Frames
    Format settings, CABAC      : Yes
    Format settings, Reference  : 4 frames
    Codec ID                    : V_MPEG4/ISO/AVC
    Duration                    : 1 h 50 min
    Bit rate                    : 12.3 Mb/s
    Width                       : 1 920 pixels
    Height                      : 1 040 pixels
    Display aspect ratio        : 1.85:1
    Frame rate mode             : Constant
    Frame rate                  : 23.976 (24000/1001) FPS
    Color space                 : YUV
    Chroma subsampling          : 4:2:0
    Bit depth                   : 8 bits
    Scan type                   : Progressive
    Bits/(Pixel*Frame)          : 0.257
    Stream size                 : 9.49 GiB (96%)
    Writing library             : x264 core 146 r2538 121396c
    Encoding settings           : cabac=1 / ref=4 / deblock=1:-2:-2 / analyse=0x3:0x133 / me=umh / subme=9 / psy=1 / psy_rd=1.00:0.00 / mixed_ref=1 / me_range=16 / chroma_me=1 / trellis=1 / 8x8dct=1 / cqm=0 / deadzone=21,11 / fast_pskip=0 / chroma_qp_offset=-2 / threads=6 / lookahead_threads=1 / sliced_threads=0 / nr=0 / decimate=1 / interlaced=0 / bluray_compat=0 / constrained_intra=0 / bframes=3 / b_pyramid=2 / b_adapt=1 / b_bias=0 / direct=1 / weightb=1 / open_gop=0 / weightp=2 / keyint=250 / keyint_min=23 / scenecut=40 / intra_refresh=0 / rc_lookahead=40 / rc=2pass / mbtree=1 / bitrate=12316 / ratetol=1.0 / qcomp=0.60 / qpmin=0 / qpmax=69 / qpstep=4 / cplxblur=20.0 / qblur=0.5 / ip_ratio=1.40 / aq=1:1.00
    Default                     : Yes
    Forced                      : No
    
    Audio
    ID                          : 2
    Format                      : AC-3
    Format/Info                 : Audio Coding 3
    Commercial name             : Dolby Digital
    Codec ID                    : A_AC3
    Duration                    : 1 h 50 min
    Bit rate mode               : Constant
    Bit rate                    : 448 kb/s
    Channel(s)                  : 6 channels
    Channel layout              : L R C LFE Ls Rs
    Sampling rate               : 48.0 kHz
    Frame rate                  : 31.250 FPS (1536 SPF)
    Compression mode            : Lossy
    Stream size                 : 353 MiB (4%)
    Language                    : English
    Service kind                : Complete Main
    Default                     : Yes
    Forced                      : No
    
    Menu
    00:00:00.000                : en:00:00:00.000
    00:00:00.375                : en:00:00:00.375
    00:14:59.565                : en:00:14:59.565
    00:30:36.501                : en:00:30:36.501
    00:45:01.449                : en:00:45:01.449
    00:59:03.957                : en:00:59:03.957
    01:14:40.977                : en:01:14:40.977
    01:29:38.456                : en:01:29:38.456
    01:45:35.162                : en:01:45:35.162
    Download:
     
  2. Loading...


Share This Page