Google Drive Little.Children.2006.1080p.AMZN.WEB-DL.DD5.1.x264-monkee

Discussion in 'Web-DL / Webrip | 1080p' started by DDLbase, Oct 12, 2020.

  1. DDLbase

    DDLbase Administrator Staff Member

    [​IMG]

    Rating: 7.5/10 based on 104,471 user ratings

    Genres: Drama, Romance

    The lives of two lovelorn spouses from separate marriages, a registered sex offender, and a disgraced ex-police officer intersect as they struggle to resist their vulnerabilities and temptations in suburban Massachusetts.

    [​IMG]
    Code:
    General
    Unique ID                   : 210052240955133943798933421726395589377 (0x9E06970F18DBDCD2BB81AD6E5188E301)
    Complete name               : Little.Children.2006.1080p.AMZN.WEB-DL.DD5.1.x264-monkee.mkv
    Format                      : Matroska
    Format version              : Version 4
    File size                   : 8.34 GiB
    Duration                    : 2 h 16 min
    Overall bit rate mode       : Variable
    Overall bit rate            : 8 728 kb/s
    Writing application         : mkvmerge v12.0.0 ('Trust / Lust') 64bit
    Writing library             : libebml v1.3.4 + libmatroska v1.4.5
    
    Video
    ID                          : 1
    Format                      : AVC
    Format/Info                 : Advanced Video Codec
    Format profile              : [email protected]
    Format settings             : CABAC / 4 Ref Frames
    Format settings, CABAC      : Yes
    Format settings, Reference  : 4 frames
    Codec ID                    : V_MPEG4/ISO/AVC
    Duration                    : 2 h 16 min
    Bit rate mode               : Variable
    Bit rate                    : 8 119 kb/s
    Maximum bit rate            : 15.0 Mb/s
    Width                       : 1 920 pixels
    Height                      : 800 pixels
    Display aspect ratio        : 2.40:1
    Frame rate mode             : Constant
    Frame rate                  : 23.976 (24000/1001) FPS
    Color space                 : YUV
    Chroma subsampling          : 4:2:0
    Bit depth                   : 8 bits
    Scan type                   : Progressive
    Bits/(Pixel*Frame)          : 0.220
    Stream size                 : 7.76 GiB (93%)
    Writing library             : x264 core 148 r2623 d5b2374
    Encoding settings           : cabac=1 / ref=4 / deblock=1:-1:-1 / analyse=0x3:0x133 / me=umh / subme=9 / psy=1 / psy_rd=1.00:0.15 / mixed_ref=1 / me_range=24 / chroma_me=1 / trellis=2 / 8x8dct=1 / cqm=0 / deadzone=21,11 / fast_pskip=1 / chroma_qp_offset=-3 / threads=25 / lookahead_threads=4 / sliced_threads=0 / nr=150 / decimate=1 / interlaced=0 / bluray_compat=0 / constrained_intra=0 / bframes=8 / b_pyramid=2 / b_adapt=2 / b_bias=0 / direct=3 / weightb=1 / open_gop=0 / weightp=2 / keyint=120 / keyint_min=61 / scenecut=0 / intra_refresh=0 / rc_lookahead=120 / rc=crf / mbtree=1 / crf=18.0 / qcomp=0.60 / qpmin=0 / qpmax=69 / qpstep=4 / vbv_maxrate=15000 / vbv_bufsize=31250 / crf_max=0.0 / nal_hrd=vbr / filler=0 / ip_ratio=1.40 / aq=3:1.00
    Default                     : Yes
    Forced                      : No
    Color range                 : Limited
    Color primaries             : BT.709
    Transfer characteristics    : BT.709
    Matrix coefficients         : BT.709
    
    Audio #1
    ID                          : 2
    Format                      : AC-3
    Format/Info                 : Audio Coding 3
    Commercial name             : Dolby Digital
    Codec ID                    : A_AC3
    Duration                    : 2 h 16 min
    Bit rate mode               : Constant
    Bit rate                    : 384 kb/s
    Channel(s)                  : 6 channels
    Channel layout              : L R C LFE Ls Rs
    Sampling rate               : 48.0 kHz
    Frame rate                  : 31.250 FPS (1536 SPF)
    Compression mode            : Lossy
    Stream size                 : 376 MiB (4%)
    Language                    : English
    Service kind                : Complete Main
    Default                     : Yes
    Forced                      : No
    
    Audio #2
    ID                          : 3
    Format                      : E-AC-3
    Format/Info                 : Enhanced AC-3
    Commercial name             : Dolby Digital Plus
    Codec ID                    : A_EAC3
    Duration                    : 2 h 16 min
    Bit rate mode               : Constant
    Bit rate                    : 224 kb/s
    Channel(s)                  : 2 channels
    Channel layout              : L R
    Sampling rate               : 48.0 kHz
    Frame rate                  : 31.250 FPS (1536 SPF)
    Compression mode            : Lossy
    Stream size                 : 219 MiB (3%)
    Language                    : English
    Service kind                : Complete Main
    Default                     : No
    Forced                      : No
    
    Text
    ID                          : 4
    Format                      : UTF-8
    Codec ID                    : S_TEXT/UTF8
    Codec ID/Info               : UTF-8 Plain Text
    Duration                    : 2 h 10 min
    Bit rate                    : 63 b/s
    Count of elements           : 1913
    Stream size                 : 60.9 KiB (0%)
    Language                    : English
    Default                     : No
    Forced                      : No
    
    Menu
    00:00:00.000                : en:(Unnamed scene)
    00:00:20.000                : en:(Unnamed scene)
    00:02:37.000                : en:(Unnamed scene)
    00:06:12.000                : en:(Unnamed scene)
    00:09:50.000                : en:(Unnamed scene)
    00:12:08.000                : en:(Unnamed scene)
    00:15:11.000                : en:(Unnamed scene)
    00:17:23.000                : en:(Unnamed scene)
    00:20:27.000                : en:(Unnamed scene)
    00:23:52.000                : en:(Unnamed scene)
    00:26:13.000                : en:(Unnamed scene)
    00:28:49.000                : en:(Unnamed scene)
    00:32:20.000                : en:(Unnamed scene)
    00:36:00.000                : en:(Unnamed scene)
    00:38:49.000                : en:(Unnamed scene)
    00:41:41.000                : en:(Unnamed scene)
    00:44:51.000                : en:(Unnamed scene)
    00:47:34.000                : en:(Unnamed scene)
    00:50:42.000                : en:(Unnamed scene)
    00:53:47.000                : en:(Unnamed scene)
    00:55:34.000                : en:(Unnamed scene)
    00:59:34.000                : en:(Unnamed scene)
    01:02:10.000                : en:(Unnamed scene)
    01:05:28.000                : en:(Unnamed scene)
    01:08:07.000                : en:(Unnamed scene)
    01:11:47.000                : en:(Unnamed scene)
    01:14:43.000                : en:(Unnamed scene)
    01:18:39.000                : en:(Unnamed scene)
    01:21:14.000                : en:(Unnamed scene)
    01:25:39.000                : en:(Unnamed scene)
    01:29:13.000                : en:(Unnamed scene)
    01:31:48.000                : en:(Unnamed scene)
    01:35:16.000                : en:(Unnamed scene)
    01:38:35.000                : en:(Unnamed scene)
    01:41:29.000                : en:(Unnamed scene)
    01:43:31.000                : en:(Unnamed scene)
    01:47:25.000                : en:(Unnamed scene)
    01:51:15.000                : en:(Unnamed scene)
    01:54:56.000                : en:(Unnamed scene)
    01:57:38.000                : en:(Unnamed scene)
    02:00:50.000                : en:(Unnamed scene)
    02:03:16.000                : en:(Unnamed scene)
    02:07:11.000                : en:(Unnamed scene)
    02:08:02.000                : en:(Unnamed scene)
    02:09:33.000                : en:(Unnamed scene)
    02:10:41.000                : en:(Unnamed scene)
    02:13:07.000                : en:(Unnamed scene)
    Download - Mirror 1:
    Download - Mirror 2:
     
  2. Loading...


Share This Page