Google Drive Look.Whos.Back.2015.1080p.BluRay.REMUX.AVC.DTS-HD.HR.5.1-EPSiLON

Discussion in 'BD REMUX | 1080p' started by DDLbase, May 12, 2020.

  1. DDLbase

    DDLbase Administrator Staff Member

    [​IMG]

    Rating: 7.1/10 based on 39,853 user ratings

    Genres: Comedy, Drama, Fantasy

    Adolf Hitler wakes up in the 21st century. He quickly gains media attention, but while Germany finds him hilarious and charming, Hitler makes some serious observations about society.

    [​IMG]
    Code:
    General
    Complete name               : Look.Whos.Back.2015.1080p.BluRay.REMUX.AVC.DTS-HD.HR.5.1-EPSiLON.mkv
    Format                      : Matroska
    Format version              : Version 4
    File size                   : 21.2 GiB
    Duration                    : 1 h 55 min
    Overall bit rate mode       : Variable
    Overall bit rate            : 26.2 Mb/s
    Encoded date                : UTC 2019-08-30 18:31:12
    Writing application         : mkvmerge v37.0.0 ('Leave It') 64-bit
    Writing library             : libebml v1.3.9 + libmatroska v1.5.2
    IMDB                        : tt4176826
    TMDB                        : movie/318917
    
    Video
    ID                          : 1
    Format                      : AVC
    Format/Info                 : Advanced Video Codec
    Format profile              : [email protected]
    Format settings             : CABAC / 4 Ref Frames
    Format settings, CABAC      : Yes
    Format settings, Reference  : 4 frames
    Codec ID                    : V_MPEG4/ISO/AVC
    Duration                    : 1 h 55 min
    Bit rate mode               : Variable
    Bit rate                    : 24.1 Mb/s
    Maximum bit rate            : 35.0 Mb/s
    Width                       : 1 920 pixels
    Height                      : 1 080 pixels
    Display aspect ratio        : 16:9
    Frame rate mode             : Constant
    Frame rate                  : 24.000 FPS
    Standard                    : NTSC
    Color space                 : YUV
    Chroma subsampling          : 4:2:0
    Bit depth                   : 8 bits
    Scan type                   : Progressive
    Bits/(Pixel*Frame)          : 0.484
    Stream size                 : 19.5 GiB (92%)
    Title                       : MPEG-4 AVC Video / 24086 kbps / 1080p / 24 fps / 16:9 / High Profile 4.1
    Language                    : German
    Default                     : Yes
    Forced                      : No
    Color range                 : Limited
    Color primaries             : BT.709
    Transfer characteristics    : BT.709
    Matrix coefficients         : BT.709
    
    Audio
    ID                          : 2
    Format                      : DTS XBR
    Format/Info                 : Digital Theater Systems
    Commercial name             : DTS-HD High Resolution Audio
    Codec ID                    : A_DTS
    Duration                    : 1 h 55 min
    Bit rate mode               : Constant
    Bit rate                    : 2 046 kb/s
    Channel(s)                  : 6 channels
    Channel layout              : C L R Ls Rs LFE
    Sampling rate               : 48.0 kHz
    Frame rate                  : 93.750 FPS (512 SPF)
    Bit depth                   : 24 bits
    Compression mode            : Lossy
    Stream size                 : 1.65 GiB (8%)
    Title                       : DTS-HD High-Res Audio / 5.1 / 48 kHz / 2046 kbps / 24-bit
    Language                    : German
    Default                     : Yes
    Forced                      : No
    
    Text #1
    ID                          : 3
    Format                      : PGS
    Codec ID                    : S_HDMV/PGS
    Codec ID/Info               : Picture based subtitle format used on BDs/HD-DVDs
    Duration                    : 1 h 54 min
    Bit rate                    : 47.5 kb/s
    Count of elements           : 3144
    Stream size                 : 39.0 MiB (0%)
    Language                    : English
    Default                     : Yes
    Forced                      : No
    
    Text #2
    ID                          : 4
    Format                      : PGS
    Codec ID                    : S_HDMV/PGS
    Codec ID/Info               : Picture based subtitle format used on BDs/HD-DVDs
    Duration                    : 1 h 50 min
    Bit rate                    : 53.8 kb/s
    Count of elements           : 2942
    Stream size                 : 42.6 MiB (0%)
    Language                    : German
    Default                     : No
    Forced                      : No
    
    Menu
    00:00:00.000                : en:Chapter 1
    00:06:25.042                : en:Chapter 2
    00:12:54.333                : en:Chapter 3
    00:20:14.125                : en:Chapter 4
    00:27:53.500                : en:Chapter 5
    00:32:52.500                : en:Chapter 6
    00:36:35.542                : en:Chapter 7
    00:43:36.750                : en:Chapter 8
    00:47:51.125                : en:Chapter 9
    00:53:59.875                : en:Chapter 10
    01:00:32.500                : en:Chapter 11
    01:08:38.500                : en:Chapter 12
    01:13:25.542                : en:Chapter 13
    01:17:34.167                : en:Chapter 14
    01:25:16.083                : en:Chapter 15
    01:30:38.250                : en:Chapter 16
    01:37:23.167                : en:Chapter 17
    01:42:25.250                : en:Chapter 18
    01:47:25.458                : en:Chapter 19
    01:51:19.375                : en:Chapter 20
    Download:
     
  2. Loading...


Share This Page