Google Drive Lost.Girls.and.Love.Hotels.1080p.WEB-DL.DD5.1.H.264-EVO

Discussion in 'Web-DL / Webrip | 1080p' started by DDLbase, Sep 18, 2020.

  1. DDLbase

    DDLbase Administrator Staff Member

    [​IMG]

    Rating: 6.2/10 based on 15 user ratings

    Genres: Drama, Thriller

    Margaret finds herself in the glittering labyrinth of Tokyo by night and as a respected English teacher of a Japanese flight attendant academy by day. With little life direction, She …

    [​IMG]
    Code:
    General
    Unique ID                   : 285737881011076145189395004674591436309 (0xD6F71D37867A19BB5335EF4853182E15)
    Complete name               : Lost.Girls.and.Love.Hotels.1080p.WEB-DL.DD5.1.H.264-EVO.mkv
    Format                      : Matroska
    Format version              : Version 4 / Version 2
    File size                   : 4.36 GiB
    Duration                    : 1h 37mn
    Overall bit rate            : 6 421 Kbps
    Encoded date                : UTC 2020-09-18 04:13:37
    Writing application         : mkvmerge v25.0.0 ('Prog Noir') 32-bit
    Writing library             : libebml v1.3.6 + libmatroska v1.4.9
    
    Video
    ID                          : 1
    Format                      : AVC
    Format/Info                 : Advanced Video Codec
    Format profile              : [email protected]
    Format settings, CABAC      : Yes
    Format settings, ReFrames   : 2 frames
    Codec ID                    : V_MPEG4/ISO/AVC
    Duration                    : 1h 37mn
    Bit rate                    : 6 036 Kbps
    Width                       : 1 920 pixels
    Height                      : 1 080 pixels
    Display aspect ratio        : 16:9
    Frame rate mode             : Constant
    Frame rate                  : 23.976 (24000/1001) fps
    Color space                 : YUV
    Chroma subsampling          : 4:2:0
    Bit depth                   : 8 bits
    Scan type                   : Progressive
    Bits/(Pixel*Frame)          : 0.121
    Stream size                 : 4.10 GiB (94%)
    Writing library             : x264 core 155 r2901 7d0ff22
    Default                     : Yes
    Forced                      : No
    Color range                 : Limited
    Color primaries             : BT.709
    Transfer characteristics    : BT.709
    Matrix coefficients         : BT.709
    
    Audio
    ID                          : 2
    Format                      : AC-3
    Format/Info                 : Audio Coding 3
    Mode extension              : CM (complete main)
    Format settings, Endianness : Big
    Codec ID                    : A_AC3
    Duration                    : 1h 37mn
    Bit rate mode               : Constant
    Bit rate                    : 384 Kbps
    Channel(s)                  : 6 channels
    Channel positions           : Front: L C R, Side: L R, LFE
    Sampling rate               : 48.0 KHz
    Frame rate                  : 31.250 fps (1536 spf)
    Compression mode            : Lossy
    Stream size                 : 267 MiB (6%)
    Language                    : English
    Default                     : Yes
    Forced                      : No
    Download - Mirror 1:
    Download - Mirror 2:
     
  2. Loading...


Share This Page