Google Drive Love.Again.2023.2160p.MA.WEB-DL.DDP5.1.Atmos.DV.HDR10.H.265-CMRG

Discussion in 'Web-DL / Webrip | 4K' started by DDLbase, May 23, 2023.

New website version: https://ddlbase.com (final revisions being made) New website version: https://ddlbase.com (final revisions being made)
  1. DDLbase

    DDLbase Administrator Staff Member

    [​IMG]

    Rating: 6.0/10 based on 2,151 user ratings

    Genres: Comedy, Drama, Romance

    A young woman tries to ease the pain of her fiancé's death by sending romantic texts to his old cell phone number, and forms a connection with the man the number has been reassigned to.

    [​IMG]
    Code:
    General
    Unique ID                   : 18504341668879503906823617106940775854 (0xDEBCE7B82CA432F88D6B1AC656BCDAE)
    Complete name               : Love.Again.2023.2160p.MA.WEB-DL.DDP5.1.Atmos.DV.HDR10.H.265-CMRG.mkv
    Format                      : Matroska
    Format version              : Version 4
    File size                   : 18.4 GiB
    Duration                    : 1 h 44 min
    Overall bit rate            : 25.3 Mb/s
    Writing application         : mkvmerge v74.0.0 ('You Oughta Know') 64-bit
    Writing library             : libebml v1.4.4 + libmatroska v1.7.1
    
    Video
    ID                          : 1
    Format                      : HEVC
    Format/Info                 : High Efficiency Video Coding
    Format profile              : Main 10@L5@High
    HDR format                  : Dolby Vision, Version 1.0, dvhe.08.06, BL+RPU, HDR10 compatible / SMPTE ST 2086, HDR10 compatible
    Codec ID                    : V_MPEGH/ISO/HEVC
    Duration                    : 1 h 44 min
    Bit rate                    : 24.5 Mb/s
    Width                       : 3 840 pixels
    Height                      : 2 160 pixels
    Display aspect ratio        : 16:9
    Frame rate mode             : Constant
    Frame rate                  : 23.976 (24000/1001) FPS
    Color space                 : YUV
    Chroma subsampling          : 4:2:0 (Type 2)
    Bit depth                   : 10 bits
    Bits/(Pixel*Frame)          : 0.123
    Stream size                 : 17.9 GiB (97%)
    Default                     : Yes
    Forced                      : No
    Color range                 : Limited
    Color primaries             : BT.2020
    Transfer characteristics    : PQ
    Matrix coefficients         : BT.2020 non-constant
    Mastering display color pri : Display P3
    Mastering display luminance : min: 0.0001 cd/m2, max: 1000 cd/m2
    Maximum Content Light Level : 1042 cd/m2
    Maximum Frame-Average Light : 321 cd/m2
    
    Audio
    ID                          : 2
    Format                      : E-AC-3 JOC
    Format/Info                 : Enhanced AC-3 with Joint Object Coding
    Commercial name             : Dolby Digital Plus with Dolby Atmos
    Codec ID                    : A_EAC3
    Duration                    : 1 h 44 min
    Bit rate mode               : Constant
    Bit rate                    : 768 kb/s
    Channel(s)                  : 6 channels
    Channel layout              : L R C LFE Ls Rs
    Sampling rate               : 48.0 kHz
    Frame rate                  : 31.250 FPS (1536 SPF)
    Compression mode            : Lossy
    Stream size                 : 573 MiB (3%)
    Language                    : English
    Service kind                : Complete Main
    Default                     : Yes
    Forced                      : No
    Complexity index            : 16
    Number of dynamic objects   : 15
    Bed channel count           : 1 channel
    Bed channel configuration   : LFE
    
    Text #1
    ID                          : 3
    Format                      : UTF-8
    Codec ID                    : S_TEXT/UTF8
    Codec ID/Info               : UTF-8 Plain Text
    Duration                    : 1 h 38 min
    Bit rate                    : 57 b/s
    Frame rate                  : 0.232 FPS
    Count of elements           : 1374
    Stream size                 : 41.4 KiB (0%)
    Language                    : English
    Default                     : No
    Forced                      : No
    
    Text #2
    ID                          : 4
    Format                      : UTF-8
    Codec ID                    : S_TEXT/UTF8
    Codec ID/Info               : UTF-8 Plain Text
    Duration                    : 1 h 38 min
    Bit rate                    : 57 b/s
    Frame rate                  : 0.232 FPS
    Count of elements           : 1374
    Stream size                 : 41.4 KiB (0%)
    Language                    : English
    Default                     : No
    Forced                      : No
    
    Text #3
    ID                          : 5
    Format                      : UTF-8
    Codec ID                    : S_TEXT/UTF8
    Codec ID/Info               : UTF-8 Plain Text
    Duration                    : 1 h 43 min
    Bit rate                    : 51 b/s
    Frame rate                  : 0.222 FPS
    Count of elements           : 1380
    Stream size                 : 39.1 KiB (0%)
    Language                    : French
    Default                     : No
    Forced                      : No
    
    Text #4
    ID                          : 6
    Format                      : UTF-8
    Codec ID                    : S_TEXT/UTF8
    Codec ID/Info               : UTF-8 Plain Text
    Duration                    : 1 h 42 min
    Bit rate                    : 51 b/s
    Frame rate                  : 0.239 FPS
    Count of elements           : 1474
    Stream size                 : 38.5 KiB (0%)
    Language                    : Indonesian
    Default                     : No
    Forced                      : No
    
    Menu
    00:00:00.000                : en:Chapter 01
    00:06:14.499                : en:Chapter 02
    00:14:32.664                : en:Chapter 03
    00:20:17.092                : en:Chapter 04
    00:27:15.468                : en:Chapter 05
    00:32:32.744                : en:Chapter 06
    00:38:09.414                : en:Chapter 07
    00:46:44.763                : en:Chapter 08
    00:52:44.122                : en:Chapter 09
    01:01:41.868                : en:Chapter 10
    01:07:08.653                : en:Chapter 11
    01:13:06.094                : en:Chapter 12
    01:19:14.212                : en:Chapter 13
    01:27:04.057                : en:Chapter 14
    01:32:02.313                : en:Chapter 15
    01:37:46.825                : en:Chapter 16
    Download - Mirror 1:
    Download - Mirror 2:
    Download - Mirror 3:
     
  2. Loading...


Share This Page