Google Drive Love.and.Monsters.2020.1080p.AMZN.WEB-DL.DDP5.1.H.264-NTG

Discussion in 'Web-DL / Webrip | 1080p' started by DDLbase, Oct 16, 2020.

  1. DDLbase

    DDLbase Administrator Staff Member

    [​IMG]

    Rating: 6.7/10 based on 227 user ratings

    Genres: Adventure, Comedy

    In a monster-infested world, Joel (Dylan O’Brien) learns his girlfriend is just 80 miles away. To make the dangerous journey, Joel discovers his inner hero to be with the girl of his dreams.

    [​IMG]
    Code:
    General
    Unique ID                   : 286841636402340303356589432683852595172 (0xD7CBB08F28A8B18FAEA139DD9679FFE4)
    Complete name               : Love.and.Monsters.2020.1080p.AMZN.WEB-DL.DDP5.1.H.264-NTG.mkv
    Format                      : Matroska
    Format version              : Version 4
    File size                   : 6.15 GiB
    Duration                    : 1 h 48 min
    Overall bit rate            : 8 085 kb/s
    Writing application         : mkvmerge v21.0.0 ('Tardigrades Will Inherit The Earth') 64-bit
    Writing library             : libebml v1.3.5 + libmatroska v1.4.8
    
    Video
    ID                          : 1
    Format                      : AVC
    Format/Info                 : Advanced Video Codec
    Format profile              : [email protected]
    Format settings             : CABAC / 4 Ref Frames
    Format settings, CABAC      : Yes
    Format settings, Reference  : 4 frames
    Codec ID                    : V_MPEG4/ISO/AVC
    Duration                    : 1 h 48 min
    Bit rate mode               : Constant
    Bit rate                    : 7 443 kb/s
    Nominal bit rate            : 10 000 kb/s
    Width                       : 1 920 pixels
    Height                      : 800 pixels
    Display aspect ratio        : 2.40:1
    Frame rate mode             : Constant
    Frame rate                  : 23.976 (24000/1001) FPS
    Color space                 : YUV
    Chroma subsampling          : 4:2:0
    Bit depth                   : 8 bits
    Scan type                   : Progressive
    Bits/(Pixel*Frame)          : 0.202
    Stream size                 : 5.66 GiB (92%)
    Default                     : Yes
    Forced                      : No
    Color range                 : Limited
    Color primaries             : BT.709
    Transfer characteristics    : BT.709
    Matrix coefficients         : BT.709
    
    Audio
    ID                          : 2
    Format                      : E-AC-3
    Format/Info                 : Enhanced AC-3
    Commercial name             : Dolby Digital Plus
    Codec ID                    : A_EAC3
    Duration                    : 1 h 48 min
    Bit rate mode               : Constant
    Bit rate                    : 640 kb/s
    Channel(s)                  : 6 channels
    Channel layout              : L R C LFE Ls Rs
    Sampling rate               : 48.0 kHz
    Frame rate                  : 31.250 FPS (1536 SPF)
    Compression mode            : Lossy
    Stream size                 : 498 MiB (8%)
    Language                    : English
    Service kind                : Complete Main
    Default                     : Yes
    Forced                      : No
    
    Text
    ID                          : 3
    Format                      : UTF-8
    Codec ID                    : S_TEXT/UTF8
    Codec ID/Info               : UTF-8 Plain Text
    Duration                    : 1 h 42 min
    Bit rate                    : 73 b/s
    Count of elements           : 1711
    Stream size                 : 55.3 KiB (0%)
    Title                       : SDH
    Language                    : English
    Default                     : No
    Forced                      : No
    Download - Mirror 1:
    Download - Mirror 2:
     
  2. Loading...


Share This Page