Google Drive M3GAN.2023.1080p.AMZN.WEB-DL.DDP5.1.H.264-FLUX

Discussion in 'Web-DL / Webrip | 1080p' started by DDLbase, Jan 24, 2023 at 5:12 PM.

  1. DDLbase

    DDLbase Administrator Staff Member

    [​IMG]

    Rating: 6.6/10 based on 24,649 user ratings

    Genres: Horror, Sci-Fi, Thriller

    A robotics engineer at a toy company builds a life-like doll that begins to take on a life of its own.

    [​IMG]
    Code:
    General
    Unique ID                   : 10900175504052688018435745779870477097 (0x8334C250B09CF468900F1F9AC962B29)
    Complete name               : M3GAN.2023.1080p.AMZN.WEB-DL.DDP5.1.H.264-FLUX.mkv
    Format                      : Matroska
    Format version              : Version 4
    File size                   : 5.73 GiB
    Duration                    : 1 h 42 min
    Overall bit rate            : 8 042 kb/s
    Writing application         : mkvmerge v73.0.0 ('25 or 6 to 4') 64-bit
    Writing library             : libebml v1.4.4 + libmatroska v1.7.1
    
    Video
    ID                          : 1
    Format                      : AVC
    Format/Info                 : Advanced Video Codec
    Format profile              : [email protected]
    Format settings             : CABAC / 4 Ref Frames
    Format settings, CABAC      : Yes
    Format settings, Reference  : 4 frames
    Codec ID                    : V_MPEG4/ISO/AVC
    Duration                    : 1 h 42 min
    Bit rate mode               : Constant
    Bit rate                    : 7 400 kb/s
    Nominal bit rate            : 10 000 kb/s
    Width                       : 1 920 pixels
    Height                      : 800 pixels
    Display aspect ratio        : 2.40:1
    Frame rate mode             : Constant
    Frame rate                  : 23.976 (24000/1001) FPS
    Color space                 : YUV
    Chroma subsampling          : 4:2:0
    Bit depth                   : 8 bits
    Scan type                   : Progressive
    Bits/(Pixel*Frame)          : 0.201
    Stream size                 : 5.28 GiB (92%)
    Language                    : English
    Default                     : Yes
    Forced                      : No
    Color range                 : Limited
    Color primaries             : BT.709
    Transfer characteristics    : BT.709
    Matrix coefficients         : BT.709
    
    Audio
    ID                          : 2
    Format                      : E-AC-3
    Format/Info                 : Enhanced AC-3
    Commercial name             : Dolby Digital Plus
    Codec ID                    : A_EAC3
    Duration                    : 1 h 42 min
    Bit rate mode               : Constant
    Bit rate                    : 640 kb/s
    Channel(s)                  : 6 channels
    Channel layout              : L R C LFE Ls Rs
    Sampling rate               : 48.0 kHz
    Frame rate                  : 31.250 FPS (1536 SPF)
    Compression mode            : Lossy
    Stream size                 : 467 MiB (8%)
    Language                    : English
    Service kind                : Complete Main
    Default                     : Yes
    Forced                      : No
    
    Text #1
    ID                          : 3
    Format                      : UTF-8
    Codec ID                    : S_TEXT/UTF8
    Codec ID/Info               : UTF-8 Plain Text
    Duration                    : 1 h 32 min
    Bit rate                    : 72 b/s
    Frame rate                  : 0.235 FPS
    Count of elements           : 1301
    Stream size                 : 49.3 KiB (0%)
    Language                    : English
    Default                     : No
    Forced                      : No
    
    Text #2
    ID                          : 4
    Format                      : UTF-8
    Codec ID                    : S_TEXT/UTF8
    Codec ID/Info               : UTF-8 Plain Text
    Duration                    : 1 h 32 min
    Bit rate                    : 80 b/s
    Frame rate                  : 0.268 FPS
    Count of elements           : 1490
    Stream size                 : 54.4 KiB (0%)
    Title                       : SDH
    Language                    : English
    Default                     : No
    Forced                      : No
    
    Text #3
    ID                          : 5
    Format                      : UTF-8
    Codec ID                    : S_TEXT/UTF8
    Codec ID/Info               : UTF-8 Plain Text
    Duration                    : 1 h 40 min
    Bit rate                    : 62 b/s
    Frame rate                  : 0.226 FPS
    Count of elements           : 1370
    Stream size                 : 46.4 KiB (0%)
    Title                       : Canadian
    Language                    : French
    Default                     : No
    Forced                      : No
    Download - Mirror 1:
    Download - Mirror 2:
     
  2. Loading...


Share This Page