Google Drive Magic.Camp.2020.2160p.HDR.DNSP.WEB-DL.Atmos.HEVC-EVO

Discussion in 'Web-DL / Webrip | 4K' started by DDLbase, Aug 14, 2020.

  1. DDLbase

    DDLbase Administrator Staff Member

    [​IMG]

    Rating: 6.1/10 based on 48 user ratings

    Genres: Comedy, Family, Fantasy

    Andy, at the urging of his former mentor and Magic Camp owner Roy Preston, returns as a counselor to the camp of his youth hoping to reignite his career.

    [​IMG]
    Code:
    General
    Unique ID                   : 115437362250988557927983705837907012997 (0x56D86D614E66780FC848E9645928ED85)
    Complete name               : Magic.Camp.2020.2160p.HDR.DNSP.WEB-DL.Atmos.HEVC-EVO.mkv
    Format                      : Matroska
    Format version              : Version 4
    File size                   : 11.8 GiB
    Duration                    : 1 h 37 min
    Overall bit rate            : 17.3 Mb/s
    Encoded date                : UTC 2020-08-14 12:31:57
    Writing application         : mkvmerge v35.0.0 ('All The Love In The World') 64-bit
    Writing library             : libebml v1.3.9 + libmatroska v1.5.2
    
    Video
    ID                          : 1
    Format                      : HEVC
    Format/Info                 : High Efficiency Video Coding
    Format profile              : Main [email protected]@High
    Codec ID                    : V_MPEGH/ISO/HEVC
    Duration                    : 1 h 37 min
    Bit rate                    : 16.5 Mb/s
    Width                       : 3 840 pixels
    Height                      : 2 160 pixels
    Display aspect ratio        : 16:9
    Frame rate mode             : Constant
    Frame rate                  : 23.976 (24000/1001) FPS
    Color space                 : YUV
    Chroma subsampling          : 4:2:0
    Bit depth                   : 10 bits
    Bits/(Pixel*Frame)          : 0.083
    Stream size                 : 11.3 GiB (96%)
    Default                     : Yes
    Forced                      : No
    Color range                 : Limited
    Color primaries             : BT.2020
    Transfer characteristics    : PQ
    Matrix coefficients         : BT.2020 non-constant
    
    Audio
    ID                          : 2
    Format                      : E-AC-3 JOC
    Format/Info                 : Enhanced AC-3 with Joint Object Coding
    Commercial name             : Dolby Digital Plus with Dolby Atmos
    Codec ID                    : A_EAC3
    Duration                    : 1 h 37 min
    Bit rate mode               : Constant
    Bit rate                    : 768 kb/s
    Channel(s)                  : 6 channels
    Channel layout              : L R C LFE Ls Rs
    Sampling rate               : 48.0 kHz
    Frame rate                  : 31.250 FPS (1536 SPF)
    Compression mode            : Lossy
    Stream size                 : 538 MiB (4%)
    Language                    : English
    Service kind                : Complete Main
    Default                     : Yes
    Forced                      : No
    Complexity index            : 14
    Number of dynamic objects   : 4
    Bed channel count           : 10 channels
    Bed channel configuration   : L R C LFE Ls Rs Lb Rb Tsl Tsr
    
    Text #1
    ID                          : 3
    Format                      : UTF-8
    Codec ID                    : S_TEXT/UTF8
    Codec ID/Info               : UTF-8 Plain Text
    Duration                    : 1 h 34 min
    Bit rate                    : 75 b/s
    Count of elements           : 1519
    Stream size                 : 52.7 KiB (0%)
    Title                       : Dansk
    Language                    : Danish
    Default                     : No
    Forced                      : No
    
    Text #2
    ID                          : 4
    Format                      : UTF-8
    Codec ID                    : S_TEXT/UTF8
    Codec ID/Info               : UTF-8 Plain Text
    Duration                    : 1 h 34 min
    Bit rate                    : 74 b/s
    Count of elements           : 1477
    Stream size                 : 51.9 KiB (0%)
    Title                       : Deutsch
    Language                    : German
    Default                     : No
    Forced                      : No
    
    Text #3
    ID                          : 5
    Format                      : UTF-8
    Codec ID                    : S_TEXT/UTF8
    Codec ID/Info               : UTF-8 Plain Text
    Duration                    : 1 h 35 min
    Bit rate                    : 86 b/s
    Count of elements           : 1701
    Stream size                 : 61.1 KiB (0%)
    Title                       : English (SDH)
    Language                    : English
    Default                     : No
    Forced                      : No
    
    Text #4
    ID                          : 6
    Format                      : UTF-8
    Codec ID                    : S_TEXT/UTF8
    Codec ID/Info               : UTF-8 Plain Text
    Duration                    : 1 h 34 min
    Bit rate                    : 82 b/s
    Count of elements           : 1503
    Stream size                 : 57.5 KiB (0%)
    Title                       : Español
    Language                    : Spanish
    Default                     : No
    Forced                      : No
    
    Text #5
    ID                          : 7
    Format                      : UTF-8
    Codec ID                    : S_TEXT/UTF8
    Codec ID/Info               : UTF-8 Plain Text
    Duration                    : 1 h 34 min
    Bit rate                    : 74 b/s
    Count of elements           : 1514
    Stream size                 : 51.5 KiB (0%)
    Title                       : Español (Latinoamericano)
    Language                    : Spanish
    Default                     : No
    Forced                      : No
    
    Text #6
    ID                          : 8
    Format                      : UTF-8
    Codec ID                    : S_TEXT/UTF8
    Codec ID/Info               : UTF-8 Plain Text
    Duration                    : 1 h 34 min
    Bit rate                    : 73 b/s
    Count of elements           : 1496
    Stream size                 : 51.4 KiB (0%)
    Title                       : Français
    Language                    : French
    Default                     : No
    Forced                      : No
    
    Text #7
    ID                          : 9
    Format                      : UTF-8
    Codec ID                    : S_TEXT/UTF8
    Codec ID/Info               : UTF-8 Plain Text
    Duration                    : 1 h 34 min
    Bit rate                    : 81 b/s
    Count of elements           : 1511
    Stream size                 : 56.8 KiB (0%)
    Title                       : Italiano
    Language                    : Italian
    Default                     : No
    Forced                      : No
    
    Text #8
    ID                          : 10
    Format                      : UTF-8
    Codec ID                    : S_TEXT/UTF8
    Codec ID/Info               : UTF-8 Plain Text
    Duration                    : 1 h 34 min
    Bit rate                    : 60 b/s
    Count of elements           : 1281
    Stream size                 : 41.9 KiB (0%)
    Title                       : Nederlands
    Language                    : Dutch
    Default                     : No
    Forced                      : No
    
    Text #9
    ID                          : 11
    Format                      : UTF-8
    Codec ID                    : S_TEXT/UTF8
    Codec ID/Info               : UTF-8 Plain Text
    Duration                    : 1 h 34 min
    Bit rate                    : 65 b/s
    Count of elements           : 1518
    Stream size                 : 45.5 KiB (0%)
    Title                       : Norsk
    Language                    : Norwegian
    Default                     : No
    Forced                      : No
    
    Text #10
    ID                          : 12
    Format                      : UTF-8
    Codec ID                    : S_TEXT/UTF8
    Codec ID/Info               : UTF-8 Plain Text
    Duration                    : 1 h 37 min
    Bit rate                    : 70 b/s
    Count of elements           : 1507
    Stream size                 : 49.8 KiB (0%)
    Title                       : Polski
    Language                    : Polish
    Default                     : No
    Forced                      : No
    
    Text #11
    ID                          : 13
    Format                      : UTF-8
    Codec ID                    : S_TEXT/UTF8
    Codec ID/Info               : UTF-8 Plain Text
    Duration                    : 1 h 37 min
    Bit rate                    : 80 b/s
    Count of elements           : 1515
    Stream size                 : 57.2 KiB (0%)
    Title                       : Português
    Language                    : Portuguese
    Default                     : No
    Forced                      : No
    
    Text #12
    ID                          : 14
    Format                      : UTF-8
    Codec ID                    : S_TEXT/UTF8
    Codec ID/Info               : UTF-8 Plain Text
    Duration                    : 1 h 34 min
    Bit rate                    : 73 b/s
    Count of elements           : 1485
    Stream size                 : 50.9 KiB (0%)
    Title                       : Português (Brasil)
    Language                    : Portuguese
    Default                     : No
    Forced                      : No
    
    Text #13
    ID                          : 15
    Format                      : UTF-8
    Codec ID                    : S_TEXT/UTF8
    Codec ID/Info               : UTF-8 Plain Text
    Duration                    : 1 h 31 min
    Bit rate                    : 64 b/s
    Count of elements           : 1514
    Stream size                 : 43.2 KiB (0%)
    Title                       : Suomi
    Language                    : Finnish
    Default                     : No
    Forced                      : No
    
    Text #14
    ID                          : 16
    Format                      : UTF-8
    Codec ID                    : S_TEXT/UTF8
    Codec ID/Info               : UTF-8 Plain Text
    Duration                    : 1 h 34 min
    Bit rate                    : 77 b/s
    Count of elements           : 1519
    Stream size                 : 54.2 KiB (0%)
    Title                       : Svenska
    Language                    : Swedish
    Default                     : No
    Forced                      : No
    Download - Mirror 1:
    Download - Mirror 2:
     
  2. Loading...


Share This Page