Google Drive Marie.Antoinette.2006.1080p.BluRay.x264-SADPANDA

Discussion in 'BDRip | 720p/1080p' started by DDLbase, Jan 3, 2021.

  1. DDLbase

    DDLbase Administrator Staff Member

    [​IMG]

    Rating: 6.4/10 based on 101,077 user ratings

    Genres: Biography, Drama, History, Romance

    The retelling of France’s iconic but ill-fated queen, Marie Antoinette. From her betrothal and marriage to Louis XVI at 15 to her reign as queen at 19 and to the end of her reign as queen, and ultimately the fall of Versailles.

    [​IMG]
    Code:
    General
    Unique ID                   : 187277767988238797075164668260862082071 (0x8CE462D953DB2A61A4BB7FE41AE33C17)
    Complete name               : Marie.Antoinette.2006.1080p.BluRay.x264-SADPANDA.mkv
    Format                      : Matroska
    Format version              : Version 4
    File size                   : 9.83 GiB
    Duration                    : 2 h 2 min
    Overall bit rate            : 11.5 Mb/s
    Encoded date                : UTC 2016-10-08 06:26:38
    Writing application         : mkvmerge v9.4.2 ('So High') 64bit
    Writing library             : libebml v1.3.4 + libmatroska v1.4.5
    
    Video
    ID                          : 1
    Format                      : AVC
    Format/Info                 : Advanced Video Codec
    Format profile              : [email protected]
    Format settings             : CABAC / 4 Ref Frames
    Format settings, CABAC      : Yes
    Format settings, Reference  : 4 frames
    Codec ID                    : V_MPEG4/ISO/AVC
    Duration                    : 2 h 2 min
    Bit rate                    : 9 954 kb/s
    Width                       : 1 920 pixels
    Height                      : 1 040 pixels
    Display aspect ratio        : 1.85:1
    Frame rate mode             : Constant
    Frame rate                  : 23.976 (24000/1001) FPS
    Color space                 : YUV
    Chroma subsampling          : 4:2:0
    Bit depth                   : 8 bits
    Scan type                   : Progressive
    Bits/(Pixel*Frame)          : 0.208
    Stream size                 : 8.54 GiB (87%)
    Writing library             : x264 core 148 r2721 72d53ab
    Encoding settings           : cabac=1 / ref=4 / deblock=1:-3:-3 / analyse=0x3:0x113 / me=umh / subme=8 / psy=1 / psy_rd=1.00:0.25 / mixed_ref=1 / me_range=24 / chroma_me=1 / trellis=2 / 8x8dct=1 / cqm=0 / deadzone=21,11 / fast_pskip=1 / chroma_qp_offset=-4 / threads=24 / lookahead_threads=4 / sliced_threads=0 / nr=0 / decimate=1 / interlaced=0 / bluray_compat=0 / constrained_intra=0 / bframes=3 / b_pyramid=2 / b_adapt=1 / b_bias=0 / direct=3 / weightb=1 / open_gop=0 / weightp=2 / keyint=240 / keyint_min=24 / scenecut=40 / intra_refresh=0 / rc_lookahead=50 / rc=2pass / mbtree=1 / bitrate=9954 / ratetol=1.0 / qcomp=0.60 / qpmin=0 / qpmax=69 / qpstep=4 / cplxblur=20.0 / qblur=0.5 / ip_ratio=1.40 / aq=1:0.75
    Default                     : Yes
    Forced                      : No
    
    Audio
    ID                          : 2
    Format                      : DTS
    Format/Info                 : Digital Theater Systems
    Codec ID                    : A_DTS
    Duration                    : 2 h 2 min
    Bit rate mode               : Constant
    Bit rate                    : 1 509 kb/s
    Channel(s)                  : 6 channels
    Channel layout              : C L R Ls Rs LFE
    Sampling rate               : 48.0 kHz
    Frame rate                  : 93.750 FPS (512 SPF)
    Bit depth                   : 24 bits
    Compression mode            : Lossy
    Stream size                 : 1.29 GiB (13%)
    Language                    : English
    Default                     : Yes
    Forced                      : No
    
    Menu
    00:00:00.000                : en:00:00:00.000
    00:10:02.602                : en:00:10:02.602
    00:20:03.202                : en:00:20:03.202
    00:30:03.802                : en:00:30:03.802
    00:40:04.402                : en:00:40:04.402
    00:50:05.002                : en:00:50:05.002
    01:00:07.604                : en:01:00:07.604
    01:10:06.202                : en:01:10:06.202
    01:20:06.802                : en:01:20:06.802
    01:30:12.407                : en:01:30:12.407
    01:40:08.002                : en:01:40:08.002
    01:50:10.604                : en:01:50:10.604
    02:00:09.202                : en:02:00:09.202
    Download - Mirror 1:
    Download - Mirror 2:
     

Share This Page