Google Drive Marlina the Murderer in Four Acts 2017 1080p Blu-ray Remux AVC DTS-HD MA 5.1 - KRaLiMaRKo

Discussion in 'BD REMUX | 1080p' started by DDLbase, Mar 19, 2020.

  1. DDLbase

    DDLbase Administrator Staff Member

    [​IMG]

    Marlina the Murderer in Four Acts (2017)

    [​IMG] 7.0/10 [​IMG] 1,874

    Plot

    Marlina the Murderer in Four Acts (Indonesian: Marlina Si Pembunuh dalam Empat Babak) is a 2017 Indonesian drama film directed by Mouly Surya and written by Surya and Rama Adi, based on a story conceived by Garin Nugroho. The film has been described as a "Satay Western", combining aspects of the feminist Western genre with an Indonesian setting. It was screened in the Directors' Fortnight section at the 2017 Cannes Film Festival. The song "Lazuardi" from the soundtrack is composed and performed by Jakarta indie rock band Efek Rumah Kaca. It was selected as the Indonesian entry for the Best Foreign Language Film at the 91st Academy Awards, but it was not nominated.

    Movie Info
    • Rating: N/A
    • Genre: Drama, Thriller
    • Directed By: Mouly Surya
    • Written By: Rama Adi, Garin Nugroho, Mouly Surya
    • Starring: Marsha Timothy, Egy Fedly, Tumpal Tampubolon, Yoga Pratama
    • Release Date: 16 Nov 2017
    • Runtime: 93 min
    • On Disk/Streaming: N/A
    • Box Office (USA): N/A
    • Awards: 1 win & 2 nominations.
    • Studio: Icarus Films
    [​IMG]
    [​IMG]
    [​IMG]
    [​IMG]

    Code:
    General
    Unique ID                                : 179646795537154649314795584185501620934 (0x8726B6DBF5BC19E7C6A32F2CF4061AC6)
    Complete name                            : Marlina the Murderer in Four Acts 2017 1080p Blu-ray Remux AVC DTS-HD MA 5.1 - KRaLiMaRKo.mkv
    Format                                   : Matroska
    Format version                           : Version 4 / Version 2
    File size                                : 17.3 GiB
    Duration                                 : 1 h 33 min
    Overall bit rate mode                    : Variable
    Overall bit rate                         : 26.5 Mb/s
    Movie name                               : Marlina si Pembunuh dalam Empat Babak a.k.a. Marlina the Murderer in Four Acts 2017 1080p Blu-ray Remux AVC DTS-HD MA 5.1 - KRaLiMaRKo
    Encoded date                             : UTC 2019-11-04 10:11:14
    Writing application                      : mkvmerge v38.0.0 ('The Silent Type') 64-bit
    Writing library                          : libebml v1.3.9 + libmatroska v1.5.2
    
    Video
    ID                                       : 1
    Format                                   : AVC
    Format/Info                              : Advanced Video Codec
    Format profile                           : [email protected]
    Format settings                          : CABAC / 4 Ref Frames
    Format settings, CABAC                   : Yes
    Format settings, ReFrames                : 4 frames
    Format settings, GOP                     : M=3, N=24
    Codec ID                                 : V_MPEG4/ISO/AVC
    Duration                                 : 1 h 33 min
    Bit rate mode                            : Variable
    Bit rate                                 : 22.9 Mb/s
    Maximum bit rate                         : 28.0 Mb/s
    Width                                    : 1 920 pixels
    Height                                   : 1 080 pixels
    Display aspect ratio                     : 16:9
    Frame rate mode                          : Constant
    Frame rate                               : 24.000 FPS
    Standard                                 : NTSC
    Color space                              : YUV
    Chroma subsampling                       : 4:2:0
    Bit depth                                : 8 bits
    Scan type                                : Progressive
    Bits/(Pixel*Frame)                       : 0.459
    Stream size                              : 14.9 GiB (86%)
    Language                                 : Indonesian
    Default                                  : Yes
    Forced                                   : No
    Color range                              : Limited
    Color primaries                          : BT.709
    Transfer characteristics                 : BT.709
    Matrix coefficients                      : BT.709
    
    Audio
    ID                                       : 2
    Format                                   : DTS
    Format/Info                              : Digital Theater Systems
    Format profile                           : MA / Core
    Codec ID                                 : A_DTS
    Duration                                 : 1 h 33 min
    Bit rate mode                            : Variable / Constant
    Bit rate                                 : 3 627 kb/s / 1 509 kb/s
    Channel(s)                               : 6 channels
    Channel positions                        : Front: L C R, Side: L R, LFE
    Sampling rate                            : 48.0 kHz
    Frame rate                               : 93.750 FPS (512 SPF)
    Bit depth                                : 24 bits
    Compression mode                         : Lossless / Lossy
    Stream size                              : 2.37 GiB (14%)
    Language                                 : Indonesian
    Default                                  : Yes
    Forced                                   : No
    
    Text
    ID                                       : 3
    Format                                   : PGS
    Codec ID                                 : S_HDMV/PGS
    Codec ID/Info                            : Picture based subtitle format used on BDs/HD-DVDs
    Duration                                 : 1 h 25 min
    Bit rate                                 : 10.9 kb/s
    Count of elements                        : 1086
    Stream size                              : 6.64 MiB (0%)
    Language                                 : French
    Default                                  : No
    Forced                                   : No
    
    Menu
    00:00:00.000                             : :Chapter 01
    00:27:29.833                             : :Chapter 02
    00:47:39.125                             : :Chapter 03
    01:02:22.333                             : :Chapter 04
    01:29:25.917                             : :Chapter 05
    Download:
     

Share This Page