Google Drive Masterminds.2016.1080p.BluRay.X264-AMIABLE

Discussion in 'BDRip | 720p/1080p' started by DDLbase, Oct 8, 2019.

  1. DDLbase

    DDLbase Administrator Staff Member

    [​IMG]
    [​IMG]

    Code:
    General
    Unique ID                   : 0 (0x0)
    Complete name               : Masterminds.2016.1080p.BluRay.X264-AMIABLE.mkv
    Format                      : Matroska
    Format version              : Version 4
    File size                   : 6.56 GiB
    Duration                    : 1 h 34 min
    Overall bit rate            : 9 919 kb/s
    Encoded date                : UTC 2010-02-22 21:41:29
    Writing application         : no_variable_data
    Writing library             : no_variable_data
    
    Video
    ID                          : 1
    Format                      : AVC
    Format/Info                 : Advanced Video Codec
    Format profile              : [email protected]
    Format settings             : CABAC / 4 Ref Frames
    Format settings, CABAC      : Yes
    Format settings, Reference  : 4 frames
    Codec ID                    : V_MPEG4/ISO/AVC
    Duration                    : 1 h 34 min
    Bit rate                    : 8 409 kb/s
    Width                       : 1 920 pixels
    Height                      : 1 080 pixels
    Display aspect ratio        : 16:9
    Frame rate mode             : Constant
    Frame rate                  : 23.976 (24000/1001) FPS
    Color space                 : YUV
    Chroma subsampling          : 4:2:0
    Bit depth                   : 8 bits
    Scan type                   : Progressive
    Bits/(Pixel*Frame)          : 0.169
    Stream size                 : 5.43 GiB (83%)
    Writing library             : x264 core 148 r2744 b97ae06
    Encoding settings           : cabac=1 / ref=4 / deblock=1:-3:-3 / analyse=0x3:0x113 / me=umh / subme=8 / psy=1 / psy_rd=1.00:0.00 / mixed_ref=1 / me_range=32 / chroma_me=1 / trellis=1 / 8x8dct=1 / cqm=0 / deadzone=21,11 / fast_pskip=1 / chroma_qp_offset=-2 / threads=24 / lookahead_threads=4 / sliced_threads=0 / nr=0 / decimate=1 / interlaced=0 / bluray_compat=0 / constrained_intra=0 / bframes=3 / b_pyramid=2 / b_adapt=2 / b_bias=0 / direct=3 / weightb=1 / open_gop=0 / weightp=2 / keyint=240 / keyint_min=24 / scenecut=40 / intra_refresh=0 / rc_lookahead=50 / rc=2pass / mbtree=1 / bitrate=8409 / ratetol=1.0 / qcomp=0.60 / qpmin=0 / qpmax=69 / qpstep=4 / cplxblur=20.0 / qblur=0.5 / ip_ratio=1.40 / aq=3:0.80
    Default                     : Yes
    Forced                      : No
    Statistics Tags Issue       : no_variable_data 1970-01-01 00:00:00 / no_variable_data 2010-02-22 21:41:29
    FromStats_BitRate           : 8407147
    FromStats_Duration          : 01:34:38.673000000
    FromStats_FrameCount        : 136152
    FromStats_StreamSize        : 5967680464
    
    Audio
    ID                          : 2
    Format                      : DTS
    Format/Info                 : Digital Theater Systems
    Codec ID                    : A_DTS
    Duration                    : 1 h 34 min
    Bit rate mode               : Constant
    Bit rate                    : 1 509 kb/s
    Channel(s)                  : 6 channels
    Channel layout              : C L R Ls Rs LFE
    Sampling rate               : 48.0 kHz
    Frame rate                  : 93.750 FPS (512 SPF)
    Bit depth                   : 24 bits
    Compression mode            : Lossy
    Stream size                 : 1 022 MiB (15%)
    Language                    : English
    Default                     : Yes
    Forced                      : No
    Statistics Tags Issue       : no_variable_data 1970-01-01 00:00:00 / no_variable_data 2010-02-22 21:41:29
    FromStats_BitRate           : 1508999
    FromStats_Duration          : 01:34:38.667000000
    FromStats_FrameCount        : 532375
    FromStats_StreamSize        : 1071138500
    
    Text #1
    ID                          : 3
    Format                      : UTF-8
    Codec ID                    : S_TEXT/UTF8
    Codec ID/Info               : UTF-8 Plain Text
    Language                    : English
    Default                     : No
    Forced                      : No
    Statistics Tags Issue       : no_variable_data 1970-01-01 00:00:00 / no_variable_data 2010-02-22 21:41:29
    FromStats_BitRate           : 76
    FromStats_Duration          : 01:28:36.436000000
    FromStats_FrameCount        : 1437
    FromStats_StreamSize        : 50552
    
    Text #2
    ID                          : 4
    Format                      : UTF-8
    Codec ID                    : S_TEXT/UTF8
    Codec ID/Info               : UTF-8 Plain Text
    Title                       : SDH
    Language                    : English
    Default                     : No
    Forced                      : No
    Statistics Tags Issue       : no_variable_data 1970-01-01 00:00:00 / no_variable_data 2010-02-22 21:41:29
    FromStats_BitRate           : 79
    FromStats_Duration          : 01:33:35.026000000
    FromStats_FrameCount        : 1615
    FromStats_StreamSize        : 55585
    
    Menu
    00:00:00.000                : en:00:00:00.000
    00:06:37.188                : en:00:06:37.188
    00:10:15.240                : en:00:10:15.240
    00:16:56.432                : en:00:16:56.432
    00:28:08.353                : en:00:28:08.353
    00:31:30.138                : en:00:31:30.138
    00:37:39.716                : en:00:37:39.716
    00:45:28.476                : en:00:45:28.476
    00:50:03.167                : en:00:50:03.167
    00:57:30.906                : en:00:57:30.906
    01:02:59.609                : en:01:02:59.609
    01:07:59.158                : en:01:07:59.158
    01:14:12.782                : en:01:14:12.782
    01:20:20.024                : en:01:20:20.024
    01:23:22.581                : en:01:23:22.581
    01:27:25.657                : en:01:27:25.657
    Download:
     
  2. Loading...


Share This Page