Google Drive Merci.La.Vie.1991.1080p.BluRay.FLAC.x264-EDPH

Discussion in 'BDRip | 720p/1080p' started by DDLbase, Apr 6, 2021.

  1. DDLbase

    DDLbase Administrator Staff Member

    [​IMG]

    Rating: 6.6/10 based on 1,120 user ratings

    Genre: Drama

    A story of hot and desperate bond between two girls.

    [​IMG]
    Code:
    General
    Unique ID                   : 44543857108486336505399681400004851031 (0x2182D5B70CD8439245A77B2ECAE2B557)
    Complete name               : Merci.La.Vie.1991.1080p.BluRay.FLAC.x264-EDPH.mkv
    Format                      : Matroska
    Format version              : Version 4
    File size                   : 12.8 GiB
    Duration                    : 1 h 58 min
    Overall bit rate mode       : Variable
    Overall bit rate            : 15.6 Mb/s
    Encoded date                : UTC 2021-04-03 13:47:54
    Writing application         : mkvmerge v55.0.0 ('Waiting For Space') 64-bit
    Writing library             : libebml v1.4.2 + libmatroska v1.6.4
    
    Video
    ID                          : 1
    Format                      : AVC
    Format/Info                 : Advanced Video Codec
    Format profile              : [email protected]
    Format settings             : CABAC / 4 Ref Frames
    Format settings, CABAC      : Yes
    Format settings, Reference  : 4 frames
    Codec ID                    : V_MPEG4/ISO/AVC
    Duration                    : 1 h 58 min
    Bit rate                    : 15.0 Mb/s
    Width                       : 1 920 pixels
    Height                      : 1 040 pixels
    Display aspect ratio        : 1.85:1
    Frame rate mode             : Constant
    Frame rate                  : 24.000 FPS
    Color space                 : YUV
    Chroma subsampling          : 4:2:0
    Bit depth                   : 8 bits
    Scan type                   : Progressive
    Bits/(Pixel*Frame)          : 0.313
    Stream size                 : 12.4 GiB (96%)
    Writing library             : x264 core 160 r3009 4c9b076
    Encoding settings           : cabac=1 / ref=4 / deblock=1:-3:-3 / analyse=0x3:0x133 / me=umh / subme=11 / psy=1 / psy_rd=1.02:0.00 / mixed_ref=1 / me_range=32 / chroma_me=1 / trellis=2 / 8x8dct=1 / cqm=0 / deadzone=21,11 / fast_pskip=0 / chroma_qp_offset=-2 / threads=32 / lookahead_threads=8 / sliced_threads=0 / nr=0 / decimate=0 / interlaced=0 / bluray_compat=0 / constrained_intra=0 / bframes=16 / b_pyramid=2 / b_adapt=2 / b_bias=0 / direct=3 / weightb=1 / open_gop=0 / weightp=2 / keyint=250 / keyint_min=24 / scenecut=40 / intra_refresh=0 / rc_lookahead=250 / rc=crf / mbtree=0 / crf=23.0 / qcomp=0.80 / qpmin=0 / qpmax=69 / qpstep=4 / vbv_maxrate=62500 / vbv_bufsize=78125 / crf_max=0.0 / nal_hrd=none / filler=0 / ip_ratio=1.30 / pb_ratio=1.20 / aq=3:0.65
    Language                    : English
    Default                     : Yes
    Forced                      : No
    Color range                 : Limited
    Color primaries             : BT.709
    Matrix coefficients         : BT.709
    
    Audio
    ID                          : 2
    Format                      : FLAC
    Format/Info                 : Free Lossless Audio Codec
    Codec ID                    : A_FLAC
    Duration                    : 1 h 58 min
    Bit rate mode               : Variable
    Bit rate                    : 564 kb/s
    Channel(s)                  : 2 channels
    Channel layout              : L R
    Sampling rate               : 48.0 kHz
    Frame rate                  : 11.719 FPS (4096 SPF)
    Bit depth                   : 16 bits
    Compression mode            : Lossless
    Stream size                 : 477 MiB (4%)
    Writing library             : libFLAC 1.2.1 (UTC 2007-09-17)
    Default                     : Yes
    Forced                      : No
    
    Text #1
    ID                          : 3
    Format                      : PGS
    Muxing mode                 : zlib
    Codec ID                    : S_HDMV/PGS
    Codec ID/Info               : Picture based subtitle format used on BDs/HD-DVDs
    Duration                    : 1 h 54 min
    Bit rate                    : 12.3 kb/s
    Count of elements           : 1774
    Stream size                 : 10.1 MiB (0%)
    Language                    : English
    Default                     : Yes
    Forced                      : No
    
    Text #2
    ID                          : 4
    Format                      : PGS
    Muxing mode                 : zlib
    Codec ID                    : S_HDMV/PGS
    Codec ID/Info               : Picture based subtitle format used on BDs/HD-DVDs
    Duration                    : 1 h 58 min
    Bit rate                    : 23.7 kb/s
    Count of elements           : 2846
    Stream size                 : 20.1 MiB (0%)
    Title                       : SDH
    Language                    : French
    Default                     : No
    Forced                      : No
    
    Menu
    00:00:00.000                : en:Chapter 1
    00:10:00.875                : en:Chapter 2
    00:19:45.666                : en:Chapter 3
    00:29:48.416                : en:Chapter 4
    00:39:10.458                : en:Chapter 5
    00:49:10.791                : en:Chapter 6
    00:58:33.125                : en:Chapter 7
    01:08:12.375                : en:Chapter 8
    01:17:43.083                : en:Chapter 9
    01:28:04.666                : en:Chapter 10
    01:36:48.458                : en:Chapter 11
    01:45:55.250                : en:Chapter 12
    Download - Mirror 1:
    Download - Mirror 2:
     
  2. Loading...


Share This Page