Google Drive Money.Heist.S04.1080p.NF.WEB-DL.DDP5.1.x264-TUT

Discussion in 'Web-DL / Webrip | 1080p' started by DDLbase, Apr 4, 2020.

  1. DDLbase

    DDLbase Administrator Staff Member

    [​IMG]

    Money Heist (2017–)
    [​IMG] 8.5/10 [​IMG] 192,432

    Plot

    A group of unique robbers assault the Factory of Moneda and Timbre to carry out the most perfect robbery in the history of Spain and take home 2.4 billion euros.

    Movie Info
    • Rating: TV-MA
    • Genre: Action, Crime, Mystery, Thriller
    • Written By: Álex Pina
    • Starring: Úrsula Corberó, Itziar Ituño, Álvaro Morte, Pedro Alonso
    • Release Date: 02 May 2017
    • Runtime: 70 min
    Code:
    General
    Unique ID : 11047237816286181509378540357325549862 (0x84F9EE06216934F78457A8DE27DF126)
    Complete name : Money.Heist.S04E01.1080p.NF.WEB-DL.DDP5.1.x264-TUT.mkv
    Format : Matroska
    Format version : Version 4 / Version 2
    File size : 2.21 GiB
    Duration : 52 min 48 s
    Overall bit rate mode : Variable
    Overall bit rate : 6 003 kb/s
    Encoded date : UTC 2020-04-03 07:11:09
    Writing application : mkvmerge v44.0.0 ('Domino') 64-bit
    Writing library : libebml v1.3.10 + libmatroska v1.5.2
    
    Video
    ID : 1
    Format : AVC
    Format/Info : Advanced Video Codec
    Format profile : [email protected]
    Format settings : CABAC / 3 Ref Frames
    Format settings, CABAC : Yes
    Format settings, ReFrames : 3 frames
    Codec ID : V_MPEG4/ISO/AVC
    Duration : 52 min 48 s
    Bit rate mode : Variable
    Bit rate : 4 870 kb/s
    Maximum bit rate : 7 305 kb/s
    Width : 1 920 pixels
    Height : 1 080 pixels
    Display aspect ratio : 16:9
    Frame rate mode : Constant
    Frame rate : 24.000 FPS
    Color space : YUV
    Chroma subsampling : 4:2:0
    Bit depth : 8 bits
    Scan type : Progressive
    Bits/(Pixel*Frame) : 0.098
    Stream size : 1.74 GiB (79%)
    Writing library : x264 core 148 r2717 0d2410d
    Encoding settings : cabac=1 / ref=3 / deblock=1:0:0 / analyse=0x1:0x111 / me=umh / subme=10 / psy=1 / psy_rd=1.00:0.00 / mixed_ref=1 / me_range=24 / chroma_me=1 / trellis=2 / 8x8dct=0 / cqm=0 / deadzone=21,11 / fast_pskip=1 / chroma_qp_offset=-2 / threads=8 / lookahead_threads=1 / sliced_threads=0 / nr=0 / decimate=1 / interlaced=0 / bluray_compat=0 / stitchable=1 / constrained_intra=0 / bframes=2 / b_pyramid=0 / b_adapt=2 / b_bias=0 / direct=3 / weightb=1 / open_gop=0 / weightp=2 / keyint=250 / keyint_min=24 / scenecut=0 / intra_refresh=0 / rc_lookahead=48 / rc=2pass / mbtree=1 / bitrate=4870 / ratetol=1.0 / qcomp=0.50 / qpmin=6 / qpmax=51 / qpstep=4 / cplxblur=20.0 / qblur=0.5 / vbv_maxrate=7305 / vbv_bufsize=9740 / nal_hrd=vbr / filler=0 / ip_ratio=1.40 / aq=1:1.00
    Default : Yes
    Forced : No
    
    Audio #1
    ID : 2
    Format : E-AC-3
    Format/Info : Enhanced Audio Coding 3
    Codec ID : A_EAC3
    Duration : 52 min 48 s
    Bit rate mode : Constant
    Bit rate : 640 kb/s
    Channel(s) : 6 channels
    Channel positions : Front: L C R, Side: L R, LFE
    Sampling rate : 48.0 kHz
    Frame rate : 187.500 FPS (256 SPF)
    Compression mode : Lossy
    Stream size : 242 MiB (11%)
    Title : English
    Language : English
    Service kind : Complete Main
    Default : Yes
    Forced : No
    
    Audio #2
    ID : 3
    Format : E-AC-3
    Format/Info : Enhanced Audio Coding 3
    Codec ID : A_EAC3
    Duration : 52 min 48 s
    Bit rate mode : Constant
    Bit rate : 640 kb/s
    Channel(s) : 6 channels
    Channel positions : Front: L C R, Side: L R, LFE
    Sampling rate : 48.0 kHz
    Frame rate : 187.500 FPS (256 SPF)
    Compression mode : Lossy
    Stream size : 242 MiB (11%)
    Title : European Spanish
    Language : Spanish
    Service kind : Complete Main
    Default : No
    Forced : No
    
    Text #1
    ID : 4
    Format : UTF-8
    Codec ID : S_TEXT/UTF8
    Codec ID/Info : UTF-8 Plain Text
    Duration : 50 min 40 s
    Bit rate : 57 b/s
    Count of elements : 619
    Stream size : 21.5 KiB (0%)
    Title : English
    Language : English
    Default : No
    Forced : No
    
    Text #2
    ID : 5
    Format : UTF-8
    Codec ID : S_TEXT/UTF8
    Codec ID/Info : UTF-8 Plain Text
    Duration : 50 min 49 s
    Bit rate : 106 b/s
    Count of elements : 666
    Stream size : 39.7 KiB (0%)
    Title : Arabic
    Language : Arabic
    Default : No
    Forced : No
    
    Text #3
    ID : 6
    Format : UTF-8
    Codec ID : S_TEXT/UTF8
    Codec ID/Info : UTF-8 Plain Text
    Duration : 52 min 16 s
    Bit rate : 55 b/s
    Count of elements : 670
    Stream size : 21.4 KiB (0%)
    Title : Chinese Simplified
    Language : Chinese
    Default : No
    Forced : No
    
    Text #4
    ID : 7
    Format : UTF-8
    Codec ID : S_TEXT/UTF8
    Codec ID/Info : UTF-8 Plain Text
    Duration : 52 min 16 s
    Bit rate : 55 b/s
    Count of elements : 672
    Stream size : 21.1 KiB (0%)
    Title : Chinese Traditional
    Language : Chinese
    Default : No
    Forced : No
    
    Text #5
    ID : 8
    Format : UTF-8
    Codec ID : S_TEXT/UTF8
    Codec ID/Info : UTF-8 Plain Text
    Duration : 52 min 16 s
    Bit rate : 54 b/s
    Count of elements : 663
    Stream size : 20.8 KiB (0%)
    Title : Czech
    Language : Czech
    Default : No
    Forced : No
    
    Text #6
    ID : 9
    Format : UTF-8
    Codec ID : S_TEXT/UTF8
    Codec ID/Info : UTF-8 Plain Text
    Duration : 52 min 16 s
    Bit rate : 55 b/s
    Count of elements : 612
    Stream size : 21.1 KiB (0%)
    Title : Danish
    Language : Danish
    Default : No
    Forced : No
    
    Text #7
    ID : 10
    Format : UTF-8
    Codec ID : S_TEXT/UTF8
    Codec ID/Info : UTF-8 Plain Text
    Duration : 52 min 16 s
    Bit rate : 48 b/s
    Count of elements : 626
    Stream size : 18.6 KiB (0%)
    Title : Dutch
    Language : Dutch
    Default : No
    Forced : No
    
    Text #8
    ID : 11
    Format : UTF-8
    Codec ID : S_TEXT/UTF8
    Codec ID/Info : UTF-8 Plain Text
    Duration : 52 min 16 s
    Bit rate : 53 b/s
    Count of elements : 534
    Stream size : 20.4 KiB (0%)
    Title : Finnish
    Language : Finnish
    Default : No
    Forced : No
    
    Text #9
    ID : 12
    Format : UTF-8
    Codec ID : S_TEXT/UTF8
    Codec ID/Info : UTF-8 Plain Text
    Duration : 52 min 17 s
    Bit rate : 55 b/s
    Count of elements : 651
    Stream size : 21.1 KiB (0%)
    Title : French
    Language : French
    Default : No
    Forced : No
    
    Text #10
    ID : 13
    Format : UTF-8
    Codec ID : S_TEXT/UTF8
    Codec ID/Info : UTF-8 Plain Text
    Duration : 52 min 16 s
    Bit rate : 56 b/s
    Count of elements : 647
    Stream size : 21.5 KiB (0%)
    Title : German
    Language : German
    Default : No
    Forced : No
    
    Text #11
    ID : 14
    Format : UTF-8
    Codec ID : S_TEXT/UTF8
    Codec ID/Info : UTF-8 Plain Text
    Duration : 52 min 16 s
    Bit rate : 92 b/s
    Count of elements : 658
    Stream size : 35.3 KiB (0%)
    Title : Greek
    Language : Greek
    Default : No
    Forced : No
    
    Text #12
    ID : 15
    Format : UTF-8
    Codec ID : S_TEXT/UTF8
    Codec ID/Info : UTF-8 Plain Text
    Duration : 52 min 16 s
    Bit rate : 87 b/s
    Count of elements : 670
    Stream size : 33.3 KiB (0%)
    Title : Hebrew
    Language : Hebrew
    Default : No
    Forced : No
    
    Text #13
    ID : 16
    Format : UTF-8
    Codec ID : S_TEXT/UTF8
    Codec ID/Info : UTF-8 Plain Text
    Duration : 52 min 16 s
    Bit rate : 57 b/s
    Count of elements : 625
    Stream size : 22.0 KiB (0%)
    Title : Hungarian
    Language : Hungarian
    Default : No
    Forced : No
    
    Text #14
    ID : 17
    Format : UTF-8
    Codec ID : S_TEXT/UTF8
    Codec ID/Info : UTF-8 Plain Text
    Duration : 52 min 16 s
    Bit rate : 56 b/s
    Count of elements : 685
    Stream size : 21.8 KiB (0%)
    Title : Indonesian
    Language : Indonesian
    Default : No
    Forced : No
    
    Text #15
    ID : 18
    Format : UTF-8
    Codec ID : S_TEXT/UTF8
    Codec ID/Info : UTF-8 Plain Text
    Duration : 52 min 16 s
    Bit rate : 53 b/s
    Count of elements : 656
    Stream size : 20.6 KiB (0%)
    Title : Italian
    Language : Italian
    Default : No
    Forced : No
    
    Text #16
    ID : 19
    Format : UTF-8
    Codec ID : S_TEXT/UTF8
    Codec ID/Info : UTF-8 Plain Text
    Duration : 52 min 16 s
    Bit rate : 51 b/s
    Count of elements : 662
    Stream size : 19.9 KiB (0%)
    Title : Japanese
    Language : Japanese
    Default : No
    Forced : No
    
    Text #17
    ID : 20
    Format : UTF-8
    Codec ID : S_TEXT/UTF8
    Codec ID/Info : UTF-8 Plain Text
    Duration : 52 min 15 s
    Bit rate : 66 b/s
    Count of elements : 694
    Stream size : 25.6 KiB (0%)
    Title : Korean
    Language : Korean
    Default : No
    Forced : No
    
    Text #18
    ID : 21
    Format : UTF-8
    Codec ID : S_TEXT/UTF8
    Codec ID/Info : UTF-8 Plain Text
    Duration : 52 min 16 s
    Bit rate : 51 b/s
    Count of elements : 629
    Stream size : 19.8 KiB (0%)
    Title : Polish
    Language : Polish
    Default : No
    Forced : No
    
    Text #19
    ID : 22
    Format : UTF-8
    Codec ID : S_TEXT/UTF8
    Codec ID/Info : UTF-8 Plain Text
    Duration : 52 min 16 s
    Bit rate : 57 b/s
    Count of elements : 659
    Stream size : 21.9 KiB (0%)
    Title : Portuguese
    Language : Portuguese
    Default : No
    Forced : No
    
    Text #20
    ID : 23
    Format : UTF-8
    Codec ID : S_TEXT/UTF8
    Codec ID/Info : UTF-8 Plain Text
    Duration : 52 min 15 s
    Bit rate : 55 b/s
    Count of elements : 659
    Stream size : 21.1 KiB (0%)
    Title : Brazilian Portuguese
    Language : Portuguese
    Default : No
    Forced : No
    
    Text #21
    ID : 24
    Format : UTF-8
    Codec ID : S_TEXT/UTF8
    Codec ID/Info : UTF-8 Plain Text
    Duration : 52 min 16 s
    Bit rate : 63 b/s
    Count of elements : 661
    Stream size : 24.4 KiB (0%)
    Title : Romanian
    Language : Romanian
    Default : No
    Forced : No
    
    Text #22
    ID : 25
    Format : UTF-8
    Codec ID : S_TEXT/UTF8
    Codec ID/Info : UTF-8 Plain Text
    Duration : 52 min 16 s
    Bit rate : 91 b/s
    Count of elements : 668
    Stream size : 35.1 KiB (0%)
    Title : Russian
    Language : Russian
    Default : No
    Forced : No
    
    Text #23
    ID : 26
    Format : UTF-8
    Codec ID : S_TEXT/UTF8
    Codec ID/Info : UTF-8 Plain Text
    Duration : 50 min 45 s
    Bit rate : 67 b/s
    Count of elements : 815
    Stream size : 25.0 KiB (0%)
    Title : European Spanish
    Language : Spanish
    Default : No
    Forced : No
    
    Text #24
    ID : 27
    Format : UTF-8
    Codec ID : S_TEXT/UTF8
    Codec ID/Info : UTF-8 Plain Text
    Duration : 50 min 15 s
    Bit rate : 0 b/s
    Count of elements : 2
    Stream size : 42.0 Bytes (0%)
    Title : European Spanish (FORCED)
    Language : Spanish
    Default : No
    Forced : Yes
    
    Text #25
    ID : 28
    Format : UTF-8
    Codec ID : S_TEXT/UTF8
    Codec ID/Info : UTF-8 Plain Text
    Duration : 52 min 16 s
    Bit rate : 51 b/s
    Count of elements : 658
    Stream size : 19.8 KiB (0%)
    Title : Swedish
    Language : Swedish
    Default : No
    Forced : No
    
    Text #26
    ID : 29
    Format : UTF-8
    Codec ID : S_TEXT/UTF8
    Codec ID/Info : UTF-8 Plain Text
    Duration : 52 min 16 s
    Bit rate : 139 b/s
    Count of elements : 671
    Stream size : 53.6 KiB (0%)
    Title : Thai
    Language : Thai
    Default : No
    Forced : No
    
    Text #27
    ID : 30
    Format : UTF-8
    Codec ID : S_TEXT/UTF8
    Codec ID/Info : UTF-8 Plain Text
    Duration : 52 min 16 s
    Bit rate : 57 b/s
    Count of elements : 663
    Stream size : 21.8 KiB (0%)
    Title : Turkish
    Language : Turkish
    Default : No
    Forced : No
    
    Text #28
    ID : 31
    Format : UTF-8
    Codec ID : S_TEXT/UTF8
    Codec ID/Info : UTF-8 Plain Text
    Duration : 52 min 16 s
    Bit rate : 76 b/s
    Count of elements : 661
    Stream size : 29.3 KiB (0%)
    Title : Vietnamese
    Language : Vietnamese
    Default : No
    Forced : No
    Download:
     
  2. Loading...


Share This Page