Google Drive Monsters.Inc.2001.REPACK.2160p.HDR.WEB-DL.TrueHD.7.1.HEVC-BLUTONiUM

Discussion in 'Web-DL / Webrip | 4K' started by DDLbase, Nov 22, 2019.

  1. DDLbase

    DDLbase Administrator Staff Member

    [​IMG]
    [​IMG]
    Code:
    General
    Unique ID                   : 68617016109524198221822908064353797024 (0x339F2817114D31B668E148FA4FB0C3A0)
    Complete name               : Monsters.Inc.2001.REPACK.2160p.HDR.WEB-DL.TrueHD.7.1.HEVC-BLUTONiUM.mkv
    Format                      : Matroska
    Format version              : Version 4 / Version 2
    File size                   : 14.7 GiB
    Duration                    : 1 h 32 min
    Overall bit rate mode       : Variable
    Overall bit rate            : 22.7 Mb/s
    Movie name                  : Monsters, Inc.
    Encoded date                : UTC 2019-11-20 20:28:21
    Writing application         : mkvmerge v35.0.0 ('All The Love In The World') 64-bit
    Writing library             : libebml v1.3.9 + libmatroska v1.5.2
    
    Video
    ID                          : 1
    Format                      : HEVC
    Format/Info                 : High Efficiency Video Coding
    Format profile              : Main [email protected]@High
    Codec ID                    : V_MPEGH/ISO/HEVC
    Duration                    : 1 h 32 min
    Bit rate                    : 16.5 Mb/s
    Width                       : 3 840 pixels
    Height                      : 2 160 pixels
    Display aspect ratio        : 16:9
    Frame rate mode             : Constant
    Frame rate                  : 23.976 (24000/1001) FPS
    Color space                 : YUV
    Chroma subsampling          : 4:2:0
    Bit depth                   : 10 bits
    Bits/(Pixel*Frame)          : 0.083
    Stream size                 : 10.7 GiB (73%)
    Default                     : Yes
    Forced                      : No
    Color range                 : Limited
    Color primaries             : BT.2020
    Transfer characteristics    : SMPTE ST 2084
    Matrix coefficients         : BT.2020 non-constant
    
    Audio
    ID                          : 2
    Format                      : TrueHD
    Codec ID                    : A_TRUEHD
    Duration                    : 1 h 32 min
    Bit rate mode               : Variable
    Bit rate                    : 6 173 kb/s
    Maximum bit rate            : 7 290 kb/s
    Channel(s)                  : 8 channels
    Channel positions           : Front: L C R, Side: L R, Back: L R, LFE
    Sampling rate               : 48.0 kHz
    Frame rate                  : 1 200.000 FPS (40 spf)
    Compression mode            : Lossless
    Stream size                 : 3.99 GiB (27%)
    Language                    : English
    Default                     : No
    Forced                      : No
    
    Text #1
    ID                          : 3
    Format                      : UTF-8
    Codec ID                    : S_TEXT/UTF8
    Codec ID/Info               : UTF-8 Plain Text
    Duration                    : 1 h 23 min
    Bit rate                    : 61 b/s
    Count of elements           : 1116
    Stream size                 : 37.5 KiB (0%)
    Language                    : English
    Default                     : No
    Forced                      : No
    
    Text #2
    ID                          : 4
    Format                      : UTF-8
    Codec ID                    : S_TEXT/UTF8
    Codec ID/Info               : UTF-8 Plain Text
    Duration                    : 1 h 24 min
    Bit rate                    : 67 b/s
    Count of elements           : 1325
    Stream size                 : 41.7 KiB (0%)
    Title                       : SDH
    Language                    : English
    Default                     : No
    Forced                      : No
    
    Menu
    00:00:00.000                : en:Chapter 01
    00:01:32.801                : en:Chapter 02
    00:03:07.604                : en:Chapter 03
    00:04:51.124                : en:Chapter 04
    00:07:16.936                : en:Chapter 05
    00:09:11.509                : en:Chapter 06
    00:10:43.601                : en:Chapter 07
    00:11:53.796                : en:Chapter 08
    00:17:25.794                : en:Chapter 09
    00:20:06.079                : en:Chapter 10
    00:22:03.780                : en:Chapter 11
    00:25:48.421                : en:Chapter 12
    00:28:34.963                : en:Chapter 13
    00:31:06.489                : en:Chapter 14
    00:34:49.962                : en:Chapter 15
    00:36:55.630                : en:Chapter 16
    00:38:50.286                : en:Chapter 17
    00:40:27.883                : en:Chapter 18
    00:43:34.278                : en:Chapter 19
    00:45:29.727                : en:Chapter 20
    00:48:07.426                : en:Chapter 21
    00:50:37.159                : en:Chapter 22
    00:54:41.278                : en:Chapter 23
    00:57:29.446                : en:Chapter 24
    01:03:42.026                : en:Chapter 25
    01:06:25.022                : en:Chapter 26
    01:07:26.375                : en:Chapter 27
    01:13:52.136                : en:Chapter 28
    01:17:49.581                : en:Chapter 29
    01:21:24.921                : en:Chapter 30
    01:24:07.959                : en:Chapter 31
    01:25:10.230                : en:Chapter 32
    Download:
     
  2. Loading...


Share This Page